<?xml version="1.0" standalone="no"?>
<!DOCTYPE svg PUBLIC "-//W3C//DTD SVG 1.1//EN" "http://www.w3.org/Graphics/SVG/1.1/DTD/svg11.dtd" >
<svg xmlns="http://www.w3.org/2000/svg" xmlns:xlink="http://www.w3.org/1999/xlink" version="1.1">
<metadata></metadata>
<defs>
<font id="mr_bedfortregular" horiz-adv-x="937" >
<font-face units-per-em="2048" ascent="1638" descent="-410" />
<missing-glyph horiz-adv-x="512" />
<glyph horiz-adv-x="0" />
<glyph unicode="&#xd;" horiz-adv-x="681" />
<glyph unicode=" "  horiz-adv-x="512" />
<glyph unicode="&#x09;" horiz-adv-x="512" />
<glyph unicode="&#xa0;" horiz-adv-x="512" />
<glyph unicode="!" horiz-adv-x="419" d="M-18 1456q0 88 18 132t45 71q51 53 115 82q10 0 10 -8.5t-8 -16.5q-39 -39 -39 -108.5t52 -591.5t52 -631q-57 -49 -83.5 -49t-26.5 16q0 80 -67.5 548t-67.5 556zM76 72q0 49 30.5 83.5t74.5 34.5t76 -34.5t32 -83.5t-32 -84t-76 -35t-74.5 35t-30.5 84z" />
<glyph unicode="&#x22;" horiz-adv-x="686" d="M8 1063q0 25 33 44t65 28l31 6q2 -14 5 -90t8.5 -138.5t29 -127.5t64.5 -83q-23 -20 -58 -20q-78 0 -128 113.5t-50 267.5zM209 1063q0 25 32.5 44t65.5 28l31 6q2 -14 5 -90t8 -138.5t28.5 -127.5t64.5 -83q-23 -20 -57 -20q-78 0 -128 113.5t-50 267.5z" />
<glyph unicode="#" horiz-adv-x="1255" d="M41 696l41 135q109 20 334 48q-15 180 -15 307l129 65q4 0 2 -18.5t-2 -109.5t11 -230l168 20q-14 184 -15 295l129 66q6 -2 6 -10q-10 -61 -10 -138t12 -200l338 30q-4 -43 -18 -85t-25 -44l-286 -26q8 -88 10 -137q287 27 352 32q-4 -41 -18.5 -84t-24.5 -45 q-184 -14 -299 -26q27 -289 33 -314q-2 -20 -121 -59l-33 360l-172 -20q20 -238 31 -303q0 -18 -119 -60l-33 347q-141 -18 -254.5 -37t-117.5 -19l41 135q104 18 323 47l-14 136q-109 -14 -203 -29q-172 -29 -180 -29zM547 768q8 -90 10 -135l174 18q-8 88 -14 137 q-113 -12 -170 -20z" />
<glyph unicode="$" horiz-adv-x="956" d="M40.5 239.5q0.5 18.5 51.5 60.5t69.5 42t20.5 -6q25 -78 123 -159t211 -122l-106 752q-29 18 -56 41q-293 195 -293 424q0 109 66 200t166 144l-41 285q0 14 27 14q45 0 53 -60l28 -210q76 27 142 26q127 0 188.5 -62.5t61.5 -159.5t-60.5 -189.5t-148.5 -112.5 q-10 0 -15 24q84 55 84 170t-53 174.5t-188 59.5l82 -582q41 -31 119.5 -81t129 -83.5t114 -88t102.5 -105.5q90 -119 90 -278.5t-118 -273t-288 -136.5l43 -309q0 -16 -14 -17q-18 0 -39 25.5t-27 72.5l-33 222h-2q-139 0 -265 62.5t-202 180.5q-23 37 -22.5 55.5z M223 1341.5q0 -155.5 150 -284.5l-72 497q-78 -57 -78 -212.5zM487 754l101 -719q20 -4 57 -4q78 0 139.5 60.5t61.5 159.5t-32 174t-93 136q-102 104 -234 193z" />
<glyph unicode="%" horiz-adv-x="1710" d="M-12 1081.5q0 204.5 98 351t276 146.5q111 0 195 -78q160 -152 160 -440q0 -201 -90 -345.5t-262 -144.5t-274.5 153t-102.5 357.5zM78 1111q0 -167 92 -318.5t242 -151.5q100 0 159.5 110.5t59.5 279.5t-83 305.5t-237 136.5q-115 0 -174 -97.5t-59 -264.5zM391 -225 l2 4q6 6 29.5 58t26.5 54q109 293 404.5 1025.5t338.5 781.5t151 86q8 -8 -12 -55q-184 -379 -317 -695.5t-445 -1117.5q-12 -33 -26 -55q-33 -41 -152 -86zM948 424q0 205 98.5 351.5t276.5 146.5q111 0 193 -78q162 -152 161 -441q0 -201 -90 -345t-262 -144t-274.5 152.5 t-102.5 357.5zM1038 454q0 -167 92.5 -318.5t241.5 -151.5q100 0 159.5 110.5t59.5 279.5t-82.5 305t-236.5 136q-115 0 -174.5 -97t-59.5 -264z" />
<glyph unicode="&#x26;" horiz-adv-x="1214" d="M-33 334q0 287 307 627q-72 231 -71.5 387.5t81.5 256t181 99.5q72 0 121 -56.5t49 -158.5q0 -201 -260 -518q129 -358 418 -813q133 90 133 218t-146 224q-12 10 -12 26.5t29.5 42t45 25.5t17.5 -2q158 -123 158 -299t-168 -321q92 -139 119.5 -171t27.5 -42.5t-44 -47 t-70 -36.5q-47 0 -172 209q-135 -68 -311.5 -68t-304.5 105.5t-128 312.5zM137 486.5q0 -201.5 109.5 -306t273.5 -104.5q66 0 127 16q-215 395 -348 793q-162 -197 -162 -398.5zM276 1434q0 -170 72 -392q170 199 170 388q0 88 -38 138t-87 50t-83 -48t-34 -136z" />
<glyph unicode="'" horiz-adv-x="485" d="M8 1063q0 25 33 44t65 28l31 6q2 -14 5 -90t8.5 -138.5t29 -127.5t64.5 -83q-23 -20 -58 -20q-78 0 -128 113.5t-50 267.5z" />
<glyph unicode="(" horiz-adv-x="747" d="M49 727q0 389 174 725q84 162 222.5 264.5t306.5 102.5q27 0 39 -4v-7q0 -33 -50 -120l-14 -27q-20 4 -57 4q-133 0 -242 -76t-174 -200q-135 -258 -135 -580q0 -438 217 -789q104 -170 273 -273t374 -103q70 0 147 12h3q8 0 8 -21q0 -102 -185.5 -102t-334 67.5 t-253 182.5t-175.5 268q-143 301 -144 676z" />
<glyph unicode=")" horiz-adv-x="747" d="M-502 1757q0 102 185.5 102.5t334 -67.5t253 -182.5t175.5 -268.5q143 -301 144 -675q0 -389 -174 -725q-84 -162 -222.5 -264.5t-306.5 -102.5q-27 0 -39 4v6q0 33 50 121l14 27q20 -4 57 -4q133 0 241.5 75.5t174.5 200.5q135 258 135 580q0 438 -217 788 q-104 170 -273 273.5t-374 103.5q-70 0 -148 -12h-2q-8 0 -8 20z" />
<glyph unicode="*" horiz-adv-x="1024" d="M-199 1376.5q0 22.5 21 22.5q12 0 37 -13q109 -53 245 -106q-92 190 -92 215t36 74t51.5 49t17.5 -18.5t9 -104.5t28 -195q129 195 153 195q35 0 80 -10t45 -31q0 -12 -24.5 -28.5t-51.5 -32.5q-53 -35 -172 -136q264 -20 275.5 -34.5t25 -51t13.5 -59t-12.5 -22.5 t-34.5 12q-92 47 -267 104q125 -172 125 -219q0 -23 -21.5 -61.5t-39 -38.5t-27.5 27.5t-32.5 115.5t-51.5 170q-133 -193 -164 -192q-43 0 -78.5 10t-35.5 26t22.5 31t44.5 27q61 35 174 127q-242 23 -260 41q-12 16 -25.5 50t-13.5 56.5z" />
<glyph unicode="+" horiz-adv-x="815" d="M96 662l13 102q154 0 266 6q-13 140 -13 283l130 65q4 0 2 -18.5t-2 -119.5t8 -204q195 16 254 39l22 8l-16 -121q-72 -18 -256 -30q14 -201 28 -277q0 -18 -118 -59l-33 330q-160 -4 -285 -4z" />
<glyph unicode="," horiz-adv-x="452" d="M129 79q0 34 50 76t94 42t62.5 -29t18.5 -112t-46 -166t-91 -121l-45 -39q-33 0 -33 13t19 32q76 111 75.5 156.5t-52.5 79.5t-52 68z" />
<glyph unicode="-" horiz-adv-x="872" d="M166 184l12 92q213 0 364.5 13.5t196.5 25.5l45 15l-14 -109q-137 -37 -604 -37z" />
<glyph unicode="." horiz-adv-x="567" d="M123 72q0 49 30.5 83.5t74.5 34.5t76 -34.5t32 -83.5t-32 -84t-76 -35t-74.5 35t-30.5 84z" />
<glyph unicode="/" horiz-adv-x="589" d="M-158 -254l2 4q6 6 30 58.5t26 54.5q109 293 404.5 1025t338.5 781t152 86q8 -8 -13 -55q-184 -379 -317 -695.5t-445 -1117.5q-12 -35 -35.5 -65.5t-142.5 -75.5z" />
<glyph unicode="0" horiz-adv-x="1304" d="M72 735q0 313 152.5 598t441.5 436h4q8 0 8 -18t-14 -27q-119 -57 -211 -196q102 78 249.5 78t264 -75t188.5 -200q150 -258 150 -594q0 -215 -61.5 -398t-195 -305t-329 -122t-348 116.5t-226 301t-73.5 405.5zM262 805q0 -221 55.5 -403.5t178 -302t294 -119.5 t270.5 198.5t99 474.5q0 455 -233 684q-125 123 -301 123q-98 0 -167 -76.5t-69 -174t84 -152.5q-2 -23 -14 -25q-59 14 -96 66.5t-46 126.5q-55 -199 -55 -420z" />
<glyph unicode="1" horiz-adv-x="587" d="M-117 1243l19 14q70 16 130 54.5t97 78.5t64 80q39 57 51 97q0 8 22 10q100 4 148 22q4 0 4 -9t-12 -79q-33 -209 -33 -477t26.5 -450.5t65.5 -282.5q82 -211 141 -264l27 -23q16 -4 16 -10v-4q0 -12 -75.5 -57t-88.5 -56q-2 -6 -18 -6t-29 13q-119 133 -173 413.5 t-54 515.5l8 439q0 16 -4 18h-2l-16 -8q-102 -55 -213 -55q-33 0 -84 10q-16 6 -17 16z" />
<glyph unicode="2" horiz-adv-x="856" d="M-10 1210q0 166 195.5 297t394 131t198.5 -234.5t-153.5 -592.5t-339.5 -629q79 19 202 25q104 0 210 -37t171 -113q14 -10 15 -39l18 -223l-10 -8q-209 285 -496 285q-82 0 -162.5 -22.5t-121.5 -45.5l-62 -39q-12 6 -12 22.5t8 38t42 57.5t89 62q145 145 269 499.5 t124 621t-145 266.5q-109 0 -196 -69.5t-87 -178.5q0 -68 37 -106.5t96 -38.5l52 10q18 0 28 -14q-6 -20 -76.5 -75.5t-137 -55.5t-108.5 58t-42 148z" />
<glyph unicode="3" horiz-adv-x="1091" d="M20 1161q0 166 196 297t392 131q111 0 178.5 -53t67.5 -161.5t-85 -258t-228 -301.5q0 -4 6 -8q25 25 145 24q195 0 289 -86t94 -223q0 -215 -185 -420.5t-419 -205.5q-139 0 -239.5 66.5t-200.5 187.5q86 100 127 116q14 0 39 -24l28 -29q225 -197 396 -197 q133 0 212.5 114t79.5 251t-66.5 228t-182 91t-252.5 -75q-23 -16 -35 -17q-16 6 -16.5 46t14.5 75q23 57 45 68q264 236 264 444q0 121 -65.5 181.5t-169 60.5t-190.5 -70t-87 -178q0 -68 37 -106.5t96 -38.5l51 10q18 0 29 -15q-6 -20 -76.5 -75.5t-137.5 -55.5t-109 58.5 t-42 148.5z" />
<glyph unicode="4" horiz-adv-x="1024" d="M-20 315v7q152 207 314.5 629.5t162.5 680.5q0 150 -64 207q-2 8 -2 10q0 10 10 11q176 -59 177 -312q0 -332 -338 -1087q0 -14 10 -15q160 66 364 80q-10 139 -12 276.5t-3 158t6 25.5t13.5 9t22.5 13.5t31.5 18.5t30 18.5t25.5 15.5t15.5 6t4.5 -41q0 -297 24 -502 q29 -2 90 -10q86 -16 166 -55t98 -92l25 -103q0 -14 -10 -14q-143 150 -357 184q70 -465 271 -485q16 -4 16 -10v-5q0 -12 -75.5 -57t-88.5 -55q-2 -6 -18.5 -6t-28.5 12q-186 172 -235 616q-272 -8 -607 -155q-10 -4 -22 -4q-16 2 -16 30z" />
<glyph unicode="5" horiz-adv-x="1024" d="M-20 150q86 100 126 116q14 0 36 -22.5t32 -30.5q225 -188 410 -188q139 0 220 106.5t81 257.5q0 205 -143.5 362.5t-405.5 157.5q-55 0 -102.5 -7t-55.5 -5q-23 2 -26 18v7q-57 422 -107 610l-16 61q0 18 20 19q8 0 68.5 -14.5t214 -41t277.5 -26.5t132 45q12 8 21 8 q8 -4 18.5 -33.5t10.5 -64.5t-3.5 -53.5t-11.5 -33t-45 -30.5t-96 -16q-104 0 -342 41l-127 22q-18 0 -21 -12q0 -61 20.5 -181t53.5 -126l86 2q360 0 540.5 -162t180.5 -397q0 -158 -76 -304.5t-217 -242.5t-296.5 -96t-256 66.5t-200.5 187.5z" />
<glyph unicode="6" horiz-adv-x="1077" d="M90 772q0 215 79 422t223.5 344t314.5 137q129 0 191.5 -64.5t62.5 -162.5t-59.5 -187.5t-145.5 -109.5q-10 0 -15 25q84 55 84 152t-68.5 174t-166.5 77q-76 0 -150.5 -108.5t-123 -280.5t-48.5 -346q0 -51 2 -76q12 -23 28.5 -1.5t52.5 58.5t129 90.5t186 53.5 q193 0 293 -128t100 -298t-60.5 -311.5t-185.5 -237.5t-285 -96q-111 12 -197.5 95t-137.5 210q-102 254 -103 569zM336 358q0 -29 33.5 -100.5t66.5 -119.5t87.5 -83t117.5 -35q137 0 203.5 85t66.5 221q0 193 -107.5 373t-240.5 180q-47 0 -85 -28t-58 -69 q-47 -94 -47 -157q0 -113 30 -191l11 -24q-4 -23 -78 -52z" />
<glyph unicode="7" horiz-adv-x="722" d="M-111 1593q4 18 21 19q96 -53 323.5 -81t409.5 -28q12 0 21 -20q31 -113 38 -135v-9q0 -20 -54 -20t-105 6q-16 0 -21 -12q-10 -14 -39.5 -170t-31.5 -213q47 0 95 -8.5t55 -14.5t9 -18l29 -148q-4 -4 -6 -4q-80 33 -189 33v-29q0 -123 8.5 -183t18.5 -138t30.5 -130 t51.5 -118q59 -127 195 -223q16 -4 16 -10v-5q0 -12 -76 -57t-88 -55q-2 -6 -18.5 -6t-28.5 12q-233 217 -234 690q0 43 7 240q-98 -25 -142 -62q-25 -23 -30 -22q-12 2 -12.5 26.5t13 61.5t63.5 86t130 72q37 205 82 346l16 45q0 2 3 8q0 12 -13 12q-291 12 -394 23.5 t-106.5 15.5t-7.5 12z" />
<glyph unicode="8" horiz-adv-x="948" d="M37 1235q0 166 140 282.5t300 116.5q111 0 182.5 -67.5t71.5 -196.5t-94 -243.5t-141 -114.5q-10 0 -15 24q37 20 67 94t30 136q0 106 -74 189t-147.5 83t-115.5 -59.5t-42 -163t43 -175t112.5 -127t152.5 -109.5t167 -111.5t153 -120.5q156 -141 156 -337t-144.5 -313.5 t-339 -117.5t-321.5 124t-127 300q0 266 279 460q10 11 0 23q-293 195 -293 424zM225 487.5q0 -170.5 147.5 -330t286.5 -159.5q162 0 162 233q0 88 -42 174.5t-101.5 146.5t-122.5 107q-119 91 -158 99q-172 -100 -172 -270.5z" />
<glyph unicode="9" horiz-adv-x="1021" d="M23 1030q0 170 60 311.5t185 237.5t285 96q111 -12 198 -95t138 -210q102 -254 102 -569q0 -215 -78.5 -422t-223 -344t-314.5 -137q-129 0 -191.5 64.5t-62.5 162.5t59.5 187t145.5 110q10 0 14 -25q-84 -55 -84 -152.5t68.5 -174t167.5 -76.5q76 0 150.5 108.5 t122.5 280.5t48 346q0 51 -2 76q-12 23 -28.5 1t-52.5 -58.5t-129 -90t-185 -53.5q-193 0 -293 128t-100 298zM170 1247q0 -193 107.5 -373t240.5 -180q47 0 85 28t59 69q47 94 47 157q0 113 -31 191l-10 24q4 23 77 51q0 29 -33.5 100.5t-66.5 120t-87 83t-118 34.5 q-137 0 -203.5 -85t-66.5 -220z" />
<glyph unicode=":" horiz-adv-x="567" d="M82 446.5q0 49.5 30.5 84t74.5 34.5t76 -34.5t32 -84t-32 -84t-76 -34.5t-74.5 34.5t-30.5 84zM123 72q0 49 30.5 83.5t74.5 34.5t76 -34.5t32 -83.5t-32 -84t-76 -35t-74.5 35t-30.5 84z" />
<glyph unicode=";" horiz-adv-x="452" d="M82 446.5q0 49.5 30.5 84t74.5 34.5t76 -34.5t32 -84t-32 -84t-76 -34.5t-74.5 34.5t-30.5 84zM129 79q0 -34 52 -68t52 -80t-75 -156q-18 -18 -18.5 -31.5t32.5 -13.5q115 86 164 221q18 55 18 123q0 123 -71 123q-53 0 -103.5 -42t-50.5 -76z" />
<glyph unicode="&#x3c;" horiz-adv-x="815" d="M61 727q141 23 287 107t248 174h2q2 0 8 -9q17 -22 103 -79q-150 -96 -219.5 -131t-198.5 -80q141 -51 214 -89t91 -47q78 -41 188 -104l-108 -55l-37 24q-207 133 -377 189q-76 25 -131 24z" />
<glyph unicode="=" horiz-adv-x="815" d="M88 717l12 102q236 0 403 14.5t216 30.5l49 15l-16 -121q-150 -41 -664 -41zM104 528l13 103q236 0 402.5 14t215.5 31l49 14l-16 -121q-150 -41 -664 -41z" />
<glyph unicode="&#x3e;" horiz-adv-x="815" d="M68 926l73 102l41 -27q362 -236 533 -235l33 -102q-260 -43 -498 -254h-2q-2 0 -8 8q-17 23 -103 80q150 96 219.5 131t198.5 80q-248 86 -487 217z" />
<glyph unicode="?" horiz-adv-x="567" d="M-272 1190q0 152 117.5 289t301.5 137q254 0 254 -227q0 -123 -97 -416t-97 -395.5t80 -131.5q23 -4 22.5 -11t-2.5 -9q-51 -66 -86 -66q-104 0 -104 164q0 92 49 355.5t49 377.5q0 242 -174 242q-102 0 -150.5 -47t-48.5 -124t51.5 -148.5t116.5 -73.5q27 0 27 -19 q-2 -27 -42 -60.5t-87 -33.5q-88 0 -134 54.5t-46 142.5zM123 72q0 49 30.5 83.5t74.5 34.5t76 -34.5t32 -83.5t-32 -84t-76 -35t-74.5 35t-30.5 84z" />
<glyph unicode="@" horiz-adv-x="1413" d="M29 154q0 186 70.5 343.5t185 258t252 156t276.5 55.5q227 0 378.5 -142.5t151.5 -414.5q0 -186 -99 -324.5t-252.5 -138.5t-231.5 149q-33 -49 -106.5 -92t-139.5 -43q-178 0 -178 150q0 117 99.5 244.5t195.5 127.5q8 0 8 -6t-8 -14q-43 -23 -73 -93.5t-30 -144.5 q0 -150 115 -149q33 0 62.5 17.5t35.5 49.5q-27 72 -26.5 150t6.5 131q16 113 31 113q6 12 111.5 12t105.5 -31q0 -6 -13 -24q-72 -98 -71.5 -205t50.5 -175.5t135 -68.5t140.5 83t55.5 204q0 252 -166 398.5t-393.5 146.5t-393.5 -158t-166 -449q0 -362 271 -540 q145 -97 348 -97q256 0 444 244l15 -24q-92 -150 -236.5 -222.5t-310.5 -72.5q-324 0 -486.5 170t-162.5 426z" />
<glyph unicode="A" horiz-adv-x="1703" d="M6 395q0 152 57.5 321t165 327.5t248.5 288.5t326.5 208t378.5 78q256 0 256 -178q0 -160 -180.5 -337t-368.5 -177q-92 0 -92 63q0 39 57 76t100 37q13 0 13 -12l-2 -15q2 -63 41 -63q104 0 184 99t80 200.5t-59.5 159t-184.5 57.5q-182 0 -338 -91t-254 -234.5 t-152.5 -312.5t-54.5 -335q0 -231 103.5 -380.5t302.5 -149.5q80 0 158.5 30.5t134.5 75.5q115 88 168 162l20 31q-23 94 -23 202q-1 114 27 212q26 96 56 124q57 61 120 62q56 0 55 -86q1 -80 -17 -142q-18 -64 -64 -149v-2q18 -121 57 -229.5t74 -155.5q80 -117 176 -117 q29 0 48 7t33.5 7t14.5 -10q0 -27 -69.5 -71t-150.5 -44t-167 72t-137 205l-25 76q-37 -51 -106.5 -121t-137 -118t-172 -88t-210.5 -40q-246 0 -368 131t-122 346z" />
<glyph unicode="B" horiz-adv-x="2162" d="M-164 954q0 326 189 543q94 111 256.5 173.5t380.5 62.5q217 0 444 -91q268 -104 377 -266q63 -92 63 -202.5t-64.5 -191.5t-166.5 -116q-4 -2 -21.5 -2t-17.5 7.5t27 19.5q155 61 155 171q0 134 -146.5 256t-365.5 191.5t-438 69.5q-307 0 -450.5 -137t-143.5 -369.5 t136 -504t346 -457t405 -185.5q174 0 174 166q0 82 -88 265.5t-177 377t-89 293.5t59 178t119 113l57 33q12 0 12 -11.5t-8 -19.5q-66 -31 -65 -150q10 -147 112 -372q63 68 90 82t92.5 14t180 -32t251 -90t258.5 -131t203.5 -167t81.5 -186q0 -147 -128 -287.5t-322 -140.5 q-139 0 -239.5 66.5t-200.5 187.5q86 100 126 116q14 0 39 -22l29 -31q63 -55 104 -87t135.5 -73t170 -41t118.5 36t43 102q0 102 -115.5 216.5t-279.5 200.5t-333 148.5t-283 77.5q53 -106 78.5 -161.5t52 -142.5t26.5 -155q0 -209 -123.5 -342t-291.5 -133 q-221 0 -417 173t-306.5 433t-110.5 524z" />
<glyph unicode="C" horiz-adv-x="1253" d="M-20 543q0 190 68.5 388.5t183 359.5t279.5 264.5t341 103.5q84 0 133 -44t49 -143.5t-93 -234.5t-232.5 -230.5t-257.5 -95.5q-59 0 -72 31q-10 27 -10 56.5t55 72.5t83 43t28 -20l-7 -41q0 -41 54 -41q102 0 191 118.5t89 245.5q0 197 -137 197q-154 0 -277.5 -132 t-187 -331t-63.5 -407.5t55 -371.5t185 -271.5t300 -108.5q332 0 563 274l15 -24q-96 -154 -273.5 -242t-371.5 -88q-348 0 -519 189.5t-171 482.5z" />
<glyph unicode="D" horiz-adv-x="1748" d="M-215 1298q0 158 163 285t376 127t421.5 -75.5t375.5 -201.5t296 -281t200 -325t71 -323q0 -244 -185.5 -395.5t-572.5 -159.5q-10 -106 -94 -200.5t-179 -94.5q-123 0 -287.5 123t-301 296t-197.5 328q-6 12 -6 21l10 14q66 102 94 103q18 0 72.5 -54.5t256.5 -184.5 t435 -202q-18 51 -85.5 216t-100.5 264q-315 137 -538.5 331t-223.5 389zM-100 1427q0 -150 165 -312.5t427 -307.5q-14 103 -14 165q0 5 -1 10q0 55 6 89q33 139 207 242q12 4 16.5 4t4.5 -6t-13 -25q-36 -40 -36 -126q0 -206 77 -478q313 -139 551 -172q10 -2 10 -12.5 t-19 -24.5t-70.5 -27.5t-144.5 -13.5t-265 53q106 -330 123 -428q78 -10 141 -10q262 0 386 91t124 254t-133 380t-332 402.5t-453 313.5t-471 128q-88 0 -157 -27q-129 -47 -129 -162zM78 215q80 -170 215 -326q76 -88 176 -142t207 -54q115 10 115 139q0 51 -15 123 q-397 35 -696 260h-2z" />
<glyph unicode="E" horiz-adv-x="921" d="M-19.5 1303.5q125.5 136.5 305 236.5t370 180t325.5 121t170 41t65.5 -25.5t30.5 -58.5q0 -57 -76.5 -102t-154.5 -62l-76 -16q-20 0 -20 14.5t22.5 37t22.5 26.5t-20.5 4t-177.5 -51.5t-340 -126t-326.5 -176t-143.5 -185.5q0 -119 244 -119q102 0 265 11.5t224 11.5 q109 0 109 -82q0 -33 -48.5 -76t-147.5 -107.5t-167.5 -114.5t-127 -138t-58.5 -191q0 -331 346 -331q104 0 203.5 50t169.5 150l14 -24q-74 -133 -226.5 -207t-316.5 -74t-283.5 84t-119.5 240q0 178 143 307q70 61 137.5 106t157.5 101q147 92 148 114q-1 8 -19 8v1 q-21 -1 -190 -23q-172 -22 -238 -22q-321 0 -321 195q0 136 125.5 272.5z" />
<glyph unicode="F" horiz-adv-x="1310" d="M-469 1102q0 53 51 147l17 29q63 78 621 266.5t1046 251.5q31 0 30.5 -10t-12.5 -23l-94 -100q-14 -18 -102.5 -35.5t-146.5 -45.5t-106.5 -65.5t-80 -109.5t-31.5 -177.5t117 -447.5q258 102 565 207q25 4 29 4q12 0 12 -9t-36 -73.5t-52 -70.5q-252 -88 -477 -183 q57 -180 84 -311q147 92 235 111q31 0 31 -7.5t-23 -13.5q-80 -23 -237 -127q16 -94 16 -170q0 -143 -74.5 -283.5t-174 -221t-179.5 -80.5q-106 0 -106 151q0 246 352 528q-35 143 -113 340q-422 -193 -698 -387q-23 -12 -40 -12t-17 23q0 6 4 22q28 131 75 164 q236 150 629 319q-102 270 -102 457q0 125 59.5 200t245.5 218q-27 0 -276.5 -83t-558 -203t-433.5 -199q-29 -16 -39 -16.5t-10 26.5zM600 -211q0 -127 70 -127q57 0 114.5 85t57.5 199.5t-27 237.5q-215 -200 -215 -395z" />
<glyph unicode="G" horiz-adv-x="1546" d="M0 359.5q0 193.5 107.5 419t278.5 420t413.5 325.5t486.5 131q147 0 148 -105q0 -88 -97.5 -213t-240 -219t-254.5 -94q-29 0 -44.5 23.5t-15.5 46.5q0 41 73 90t120 49q8 0 8 -6l-18 -39q0 -12 16 -20.5t33 -8.5q94 0 171 98.5t77 196.5q0 59 -35 95t-107 36 q-139 0 -304 -115.5t-295 -285.5t-218 -372t-88 -371t97.5 -263t259 -94t330.5 121t259 338q-2 25 -2 53q0 477 182 530q66 20 80 21q27 0 27 -33t-46 -171t-46 -275q0 -397 109.5 -798.5t230.5 -522.5q4 -4 15 -11.5t11 -17.5q0 -31 -47 -50.5t-71 -19.5q-68 0 -128.5 63.5 t-104.5 173t-79 233.5t-59 270q-43 250 -64 467q-119 -227 -335 -360.5t-411.5 -133.5t-309 102.5t-113.5 296z" />
<glyph unicode="H" horiz-adv-x="1497" d="M-307 729q0 33 135 113l6 4q139 -66 275 -115q-117 444 -117 604q0 72 16 113q4 6 90 57t99 51q8 0 8 -14l-8 -131q0 -190 129 -756q266 -82 559 -141q-84 317 -123 547.5t-39 492.5q4 23 81 73t109 50q16 0 17 -22l-10 -144q0 -332 172 -1032q242 -37 450 -43 q14 0 14 -13t-90 -62.5t-106 -49.5q-96 0 -230 17l80 -287q0 -35 -145 -119q-164 0 -643 285q20 -115 24 -201q-4 -4 -81.5 -41t-88.5 -37q-27 0 -26 39q-18 195 -53 379q-209 135 -356.5 247t-147.5 136zM-164 674q2 -44 350 -271l-36 160q-152 51 -312 113q-2 0 -2 -2z M360 496q41 -180 52 -234q487 -297 624 -299l-110 395q-275 54 -566 138z" />
<glyph unicode="I" horiz-adv-x="923" d="M-197 1020q0 217 93 393q47 90 132 145.5t195 55.5q121 0 178 -154q61 -160 77 -324.5t22 -259t12 -230.5t12 -210q43 -6 128 -6t138.5 10.5t85 29.5t37.5 19q15 0 15 -18t-53.5 -64.5t-144.5 -91.5t-187 -51q20 -141 55 -196.5t35.5 -63.5t-13.5 -17.5t-53 -27.5 q-94 -45 -104 -45q-25 0 -57.5 65.5t-53.5 307.5q-225 66 -387 268.5t-162 464.5zM-68 1206q0 -223 109 -422.5t299 -291.5q-27 524 -66 710q-63 299 -200 301q-141 0 -142 -297z" />
<glyph unicode="J" horiz-adv-x="837" d="M-211 971q0 258 114.5 436t334.5 178q109 0 182.5 -112.5t113 -304t66.5 -426t52.5 -494.5t58 -494.5t97 -441.5t157.5 -320q0 -25 -53.5 -56.5t-88.5 -31.5q-82 55 -142 177t-105.5 357.5t-63.5 370t-37.5 307.5t-21.5 183q-68 -80 -198 -80t-242.5 113.5t-168 282.5 t-55.5 356zM-2 775q61 -177 174 -304t236 -127q23 0 38 8q-45 418 -72.5 558.5t-49 228.5t-47 144t-55 105.5t-67.5 73t-67 23.5t-44 -8.5t-34.5 -34t-36.5 -64.5q-37 -87 -37 -253q0 -172 62 -350z" />
<glyph unicode="K" horiz-adv-x="1644" d="M-197 1423q0 66 88.5 126.5t120.5 60.5q10 0 10.5 -9.5t-15 -59.5t-15.5 -68q0 -217 166 -719q68 121 123 129q96 0 242.5 126t248.5 261t105 176q-4 -4 -46.5 -22.5t-57.5 -18.5t-15 12.5t22 22.5q170 90 238 198q2 2 18.5 2t48.5 -10q76 -25 76 -31 q0 -66 -106.5 -194.5t-248.5 -252.5t-294 -217t-231 -93q98 -4 233 -87t269.5 -200t267.5 -231q321 -277 487 -277l61 10q10 0 11 -10q0 -37 -82 -92t-131 -55q-168 0 -490 280q-133 115 -264 232q-310 280 -449 280h-1l-13 -2q166 -481 166 -618q0 -82 -67.5 -142.5 t-110.5 -60.5q-10 0 -10 41q-2 154 -57.5 370t-121 397t-121 392t-55.5 354z" />
<glyph unicode="L" horiz-adv-x="1536" d="M-303 773q0 28 37 63.5t63 35.5q70 -8 97 -8q184 0 372 117q-24 88 -24 164v6q0 244 151.5 402.5t304.5 158.5q123 0 123 -98q0 -92 -101.5 -237.5t-260.5 -286.5q35 -121 112.5 -309.5t134 -350.5t64.5 -287q176 -28 339 -28h11q354 0 545 139q16 0 16 -14 q-215 -242 -755 -242q-82 0 -166 6q-25 -111 -100.5 -185.5t-182 -74.5t-217 62.5t-188.5 145.5t-129.5 159.5t-51.5 109.5q0 18 60.5 70.5t101.5 52.5q231 -100 512 -162q-33 100 -143.5 367.5t-147.5 396.5q-294 -201 -530 -201q-47 0 -47 28zM45 137q49 -131 160 -237 q45 -45 116.5 -80t151.5 -35q139 0 139 170q0 31 -6 61q-193 23 -357.5 62t-203.5 59zM418 1361q0 -114 31 -231q100 102 160.5 214t60.5 188q0 96 -92 96q-72 0 -116 -76.5t-44 -190.5z" />
<glyph unicode="M" horiz-adv-x="2037" d="M-289 1466q0 25 87 44.5t135.5 19.5t84.5 -78q39 -84 81 -198.5t40 -114.5q68 141 160 223t199 82q74 0 132 -69.5t95 -174.5q70 -201 111 -586l28 -344q4 0 62.5 244t97.5 395q96 377 115 402q8 18 81.5 42.5t106.5 24.5q8 0 8 -22l-2 -29q-2 -29 -2 -93.5t4 -141 t19.5 -201.5t41 -237.5t74 -232.5t113 -207t162.5 -143.5t219 -56.5q59 0 84 10.5t40 18.5t19 10q16 0 17 -20q0 -35 -123 -81t-207 -46q-205 0 -355.5 189.5t-220 475t-69.5 621.5h-10l-265 -1059q-10 -129 -24 -141q-90 -61 -115.5 -61.5t-27.5 49.5q-6 215 -42 483 t-73 434t-98.5 283.5t-128 117.5t-121 -57t-84.5 -160q33 -160 78 -498.5t45 -549.5q0 -59 -37 -93t-72 -34t-69.5 76.5t-58 224t-23.5 260.5t8 252q-41 291 -125 514q-29 82 -75 144.5t-93 66.5q-27 4 -27 22z" />
<glyph unicode="N" horiz-adv-x="1488" d="M-217 1438q0 12 90 41.5t117 29.5q147 -66 208.5 -361.5t102.5 -971.5q0 -8 6 -8l4 2l303 1165q31 0 99.5 45t93 45t24.5 -18q0 -520 123 -928q66 -211 184.5 -338t280.5 -127l45 2q25 0 25 -21.5t-85 -54t-151 -32.5q-145 0 -257.5 101.5t-175 251t-103.5 345.5 q-63 319 -64 676q-160 -547 -356 -1335q-102 -39 -124.5 -39t-22.5 29q-41 934 -203 1312q-66 150 -146 174q-18 6 -18 15z" />
<glyph unicode="O" horiz-adv-x="1452" d="M-16 589q0 288 160.5 559t461.5 429h4q8 0 8 -18.5t-14 -26.5q-203 -100 -322.5 -329.5t-119.5 -483.5q0 -274 145 -477q72 -98 195 -157.5t287.5 -59.5t298 112.5t197 281.5t63.5 357q0 268 -134.5 456.5t-386.5 188.5q-291 0 -389 -358q-4 -18 -20 -19q-12 0 -12 23 q0 88 75.5 199.5t212.5 196.5t287 85q262 0 395 -164.5t133 -418.5q0 -178 -64.5 -362.5t-177 -339t-285.5 -253t-370 -98.5q-297 0 -462.5 194.5t-165.5 482.5z" />
<glyph unicode="P" horiz-adv-x="1349" d="M-223 997.5q0 155.5 93 310t236.5 259t313.5 165t312 60.5t298 -45t296 -120t235.5 -190.5t95.5 -242.5q0 -84 -82 -188.5t-178.5 -172t-139.5 -67.5t-119.5 39t-93 39t-26.5 -10q104 -244 118.5 -297.5t26.5 -94.5q20 -72 21 -135q0 -137 -79 -239.5t-184.5 -148.5 t-211.5 -46q-168 0 -343.5 121t-301 294t-206.5 363.5t-81 346zM-33 1149q0 -199 96.5 -412t234.5 -381t297 -281.5t277 -113.5q82 0 126 68.5t44 141.5t-51 194.5t-113.5 234.5t-113.5 249t-51 217t22.5 136t55.5 88q66 68 122 94l23 11q12 0 12 -11.5t-10 -19.5 q-49 -49 -49 -138t108 -347q77 70 135 70v-1q58 0 125.5 -29.5t104.5 -29.5q70 0 108.5 58.5t38.5 123.5q0 119 -109.5 234.5t-269 194.5t-332.5 128t-306 49q-240 0 -382.5 -164.5t-142.5 -363.5z" />
<glyph unicode="Q" horiz-adv-x="1761" d="M2 306q0 171 64.5 352.5t184.5 355.5t275.5 318.5t356 232.5t405.5 88q162 0 162 -117q0 -92 -96.5 -223t-235.5 -227.5t-246 -96.5q-35 0 -58 15.5t-23 45t19 59.5t47 49.5t56 33.5q54 27 73 27q1 0 1 -1q19 0 19 -16l-15 -47q0 -23 14.5 -34t28.5 -11q84 0 168 105.5 t84 205.5q0 143 -188 144q-166 0 -333 -114t-286 -284t-193.5 -368.5t-74.5 -371.5t88 -279.5t270 -106.5q102 0 203.5 49t173.5 119q154 147 219 258l29 49q0 201 16 389l7 72q0 25 63 79t100 54t48.5 -10t11.5 -33t-18.5 -120t-32.5 -109q-12 -258 -13 -368v-7 q0 -107 15 -213q41 10 194 176q33 0 33 -16q0 -4 -41 -49.5t-96.5 -96.5t-83.5 -67l22 -123q143 -18 258 -94t180.5 -172.5t108.5 -208.5q74 -193 74 -327t-61.5 -218t-169 -84t-207 97t-168.5 261q-123 295 -189 619l-121 -35q-27 0 -51 92q-6 23 -10 35q0 16 24 22 q51 12 115 52l21 12q-16 160 -19 285l-2 41q-94 -147 -204.5 -256t-196.5 -161t-178 -83q-125 -39 -211 -39q-207 0 -308.5 111.5t-101.5 282.5zM1442 -49q8 -18 37.5 -127t66.5 -225.5t88.5 -238.5t121 -201t142.5 -79q35 0 65 49t30 119q0 154 -84 318t-213 273.5 t-254 111.5z" />
<glyph unicode="R" horiz-adv-x="2506" d="M-205 901.5q0 149.5 78 307t203 286.5t300 212t353 83t447 -84q145 -45 269 -106.5t209 -157.5t85 -205t-101.5 -227.5t-238.5 -155.5l-2 -2q74 -35 356 -309q113 -109 232.5 -217.5t245.5 -190.5t220 -98q20 -4 20.5 -18.5t-17.5 -24.5q-121 -70 -209 -70t-213 85 t-245 206t-239 242q-289 291 -454 291q-41 0 -70 -13q51 -104 74.5 -157.5t49.5 -146.5t26 -177q0 -207 -106.5 -314.5t-262.5 -107.5q-121 0 -261.5 59.5t-271.5 167t-238.5 239.5t-173 293t-65.5 310.5zM-45 1120.5q0 -106.5 50 -252t142.5 -308.5t205 -308.5t254 -240.5 t274.5 -95q66 0 109.5 37t43.5 108q0 121 -54 269.5t-119.5 264.5t-120 253t-54.5 234.5t77 179t181 141.5q2 2 6 2q16 0 17 -16q-1 -7 -9 -13q-86 -63 -86 -168q0 -170 127 -424q63 119 205 119q45 0 117 -12q98 2 186 54t88 145q0 125 -155.5 246.5t-388 194.5t-453.5 73 q-319 0 -489 -138q-66 -51 -110 -145t-44 -200.5z" />
<glyph unicode="S" horiz-adv-x="1204" d="M-161.5 -22.5q-0.5 16.5 7.5 26.5q92 102 217 309t230 430q-262 182 -262 373q0 127 60.5 258t161.5 217t194.5 86t127 -44t33.5 -128q0 -158 -190 -590q68 -45 181.5 -109.5t194 -111.5t162.5 -108q168 -129 168 -279.5t-155.5 -280.5t-315.5 -130q-252 0 -448 262 q-23 31 -23 52t51.5 63t79.5 42q6 0 11 -6q55 -96 198.5 -204.5t280.5 -108.5q170 12 170 168q0 131 -150 246q-111 84 -272.5 177t-222.5 134q-248 -521 -449 -746q-14 -14 -24 -14q-16 0 -16.5 16.5zM145 1311q0 -197 234 -367q108 276 108 439q0 75 -47 136.5 t-105.5 61.5t-104.5 -61.5t-65.5 -121.5t-19.5 -87z" />
<glyph unicode="T" horiz-adv-x="739" d="M-903 1061q0 53 51 147l16 29q63 78 621.5 266.5t1045.5 251.5q31 0 31 -10t-12 -23l-94 -100q-14 -18 -102.5 -35.5t-146.5 -45.5t-106.5 -65.5t-80 -109.5t-31.5 -173t106.5 -421.5t134.5 -466.5q147 92 236 111q31 0 31 -7.5t-23 -13.5q-80 -23 -237 -127 q16 -94 16 -170q0 -143 -75 -283.5t-174 -221t-179 -80.5q-106 0 -107 151q0 246 353 529q-31 123 -100.5 303t-115.5 332.5t-46 283.5t59 206t246 218q-27 0 -277 -83t-558 -203t-433 -199q-29 -16 -39 -16.5t-10 26.5zM166 -252q0 -127 70 -127q57 0 114.5 85t57.5 199.5 t-27 237.5q-215 -200 -215 -395z" />
<glyph unicode="U" horiz-adv-x="1597" d="M-145 1491q0 12 27.5 29.5t90 40t93.5 22.5q51 0 84.5 -112.5t49 -280.5t48.5 -365.5t77 -365.5t141 -280.5t234 -112.5q96 0 179.5 88t113.5 231h-1q-8 -1 -38 107q-32 112 -61 275t-29 273l4 107q0 12 41 31.5t60 19.5q53 0 89 -97t36 -290l-4 -121q0 -63 77.5 -222 t184 -298t172.5 -139q2 0 26 4q12 0 13 -17q0 -25 -72 -65.5t-109 -40.5q-61 0 -170.5 111.5t-187.5 298.5q-180 -381 -432 -381q-127 0 -223.5 66.5t-151.5 174t-94 245.5t-55.5 282.5t-34.5 281.5l-33 246q-33 242 -125 242q-20 0 -20 12z" />
<glyph unicode="V" horiz-adv-x="1052" d="M-178 1356q4 12 12 20q45 29 117 66t79 37t7 -25l-8 -151q0 -305 77 -607q45 -176 113 -314t182.5 -230.5t248.5 -92.5t194.5 96.5t60.5 268.5t-69.5 382t-180.5 359q-78 31 -188.5 132.5t-110.5 136.5q0 20 40 41.5t61 21.5q135 0 253.5 -135t141.5 -229 q139 -45 172 -53t33 -25q0 -23 -23.5 -23t-52.5 6q-57 12 -94 25q78 -252 78 -535q0 -242 -88 -405q-49 -88 -141.5 -138.5t-234 -50.5t-275.5 134.5t-220 345.5t-135 458.5t-49 483.5z" />
<glyph unicode="W" horiz-adv-x="1599" d="M-233 1540q94 70 196 70q96 -90 145.5 -274.5t60.5 -378t22.5 -377t54.5 -300t133 -116.5q59 0 101 63.5t50 100.5q-57 131 -92 353t-35 325q0 166 27 215q4 4 41 18t47 14q66 0 109 -292l18 -332q90 -346 203 -539q137 -233 354 -233q115 0 172.5 108.5t57.5 302 t-77 420.5t-200 356q-76 51 -172 137.5t-96 133.5q0 14 59.5 33.5t73.5 19.5q158 -80 237 -190q45 -59 67 -98.5t60 -116.5q27 -27 113 -46.5t145 -19.5q20 0 21 -25q0 -20 -29 -20q-68 0 -178 33l-39 10q-6 0 -6 -8q111 -252 111 -515t-116 -429t-347 -166q-82 0 -157 36.5 t-125 85t-101 126.5q-61 92 -131 241q-121 -211 -252 -211q-102 0 -168 94.5t-91.5 237.5t-46 321.5t-34.5 338t-57 294t-113 183.5q-16 12 -16 16z" />
<glyph unicode="X" horiz-adv-x="1337" d="M-104 -92.5q0 18.5 4 24.5q156 324 325 613q-131 209 -205.5 429t-74.5 376q0 43 6 80q0 10 66.5 65t84 55t17.5 -12q23 -408 233 -786q246 383 522 702q23 25 39.5 25t35 -14.5t18.5 -18.5t-4 -8q-262 -266 -576 -744q174 -291 409.5 -469t442.5 -178q86 0 141 39 q16 12 21 12q12 0 12 -13t-4 -22q-157 -120 -314 -120h-3q-242 0 -455 151.5t-379 399.5q-180 -291 -321 -576q-16 -29 -28.5 -29t-12.5 18.5z" />
<glyph unicode="Y" horiz-adv-x="1419" d="M-125 1513q0 25 45 39q63 23 111.5 23t62.5 -2q68 -78 102.5 -263.5t52 -383t51.5 -388t126 -313.5t248 -123q109 0 198 89.5t99 134.5q-96 330 -97 675q0 106 39 159.5t97.5 53.5t82 -114.5t23.5 -210.5q0 -133 -14 -221l-4 -27q45 -260 136 -521t187.5 -440.5 t186.5 -292t141 -112.5l47 10q8 0 8 -8q0 -27 -66.5 -64.5t-133 -37.5t-139 72.5t-139 198.5t-122 245t-109 266t-71.5 203.5t-37 111.5q0 -4 -20.5 -31.5t-61.5 -69.5t-92 -82t-125 -68.5t-147 -28.5q-137 0 -235.5 77.5t-147.5 204.5t-79 281t-43 311.5t-28 292.5 q-33 307 -123 340q-10 4 -10 14z" />
<glyph unicode="Z" horiz-adv-x="1748" d="M-115 995q0 92 46 192.5t129 189.5t217.5 146.5t291.5 57.5q199 0 388.5 -128t301 -311.5t111.5 -350.5q0 -100 -67.5 -212t-167.5 -139q170 -238 258 -385q145 197 342 307q14 0 14 -22q-201 -125 -330 -328q285 -487 285 -805q0 -197 -89 -318.5t-171 -121.5 q-164 0 -249 129t-85 338q0 326 174 649q-199 352 -383 531q-78 0 -185.5 127t-107.5 204q0 27 38 55.5t61 28.5q39 0 164.5 -110.5t242.5 -259.5q12 0 37 19.5t41 45.5q41 70 41 198t-79 263t-207 241.5t-302 174t-350 67.5q-117 0 -189.5 -113.5t-72.5 -249.5t80 -316.5 t252 -371t387 -294.5q0 -18 -48.5 -33.5t-97.5 -19.5l-47 -7q-84 0 -186 89q-487 434 -488 843zM1233 -619.5q0 -222.5 78 -364.5t207 -142q39 0 63.5 46t24.5 137t-80 308t-207 455q-86 -217 -86 -439.5z" />
<glyph unicode="[" horiz-adv-x="706" d="M-39 1755q170 0 292 13.5t159 25.5l34 14l-12 -108q-80 -27 -330 -35q203 -455 510 -1995q276 8 375 39l35 12l-12 -108l-508 -23q-164 899 -271.5 1350t-257.5 760q-20 45 -12 53z" />
<glyph unicode="\" horiz-adv-x="757" d="M-74 1755q109 -37 152 -86t339 -781t404 -1025q2 -2 26 -54.5t30 -58.5l2 -4q-119 45 -142.5 76t-36.5 65q-311 801 -444 1117.5t-317 695.5q-20 47 -13 55z" />
<glyph unicode="]" horiz-adv-x="872" d="M-199 1679l13 109l508 22q164 -899 271 -1349.5t257 -759.5q20 -45 12 -53l2 -2q-170 0 -291.5 -13.5t-158.5 -25.5l-35 -15l12 109q78 27 330 35q-41 86 -94.5 247.5t-170 630.5t-245.5 1117q-276 -8 -375 -39z" />
<glyph unicode="^" horiz-adv-x="808" d="M166 170q86 68 110 102l35 52q8 12 21 36l14 29q0 29 52.5 54.5t85 25.5t32.5 -29q-2 -10 -2 -28q0 -72 56.5 -112t134.5 -48q0 -27 -37 -31q-102 0 -180 33t-115 80q-4 -4 -29 -33q-53 -66 -129 -129q-16 -14 -32.5 -14t-16.5 12z" />
<glyph unicode="_" horiz-adv-x="968" d="M72 -131l14 92q256 0 437.5 13.5t234.5 25.5l55 14l-16 -108q-168 -37 -725 -37z" />
<glyph unicode="`" d="M291 860q0 29 52 54.5t85 25.5t33 -29q-2 -10 -2 -28q0 -72 56 -112t134 -48q0 -27 -37 -31q-135 0 -228 58.5t-93 109.5z" />
<glyph unicode="a" d="M0 111q0 117 99.5 244.5t195.5 127.5q8 0 8 -6t-8 -14q-43 -23 -72.5 -93.5t-29.5 -144.5q0 -149 112 -149h2q33 0 62.5 17.5t36.5 49.5q-27 72 -27 150t6 131q17 113 31 113q6 12 111.5 12t105.5 -31q0 -6 -12 -24q-72 -98 -72 -205t50 -175.5t128 -68.5q127 0 258 180 l14 -24q-160 -254 -352 -254q-145 0 -223 149q-33 -49 -106.5 -92t-139.5 -43q-178 0 -178 150z" />
<glyph unicode="b" horiz-adv-x="831" d="M-61 784q0 215 35.5 389.5t107.5 287t164 112.5q147 0 147 -283q0 -201 -68.5 -479.5t-148.5 -452.5q63 -180 145 -277t150 -97t90 84q-92 41 -156.5 131t-64.5 180q0 47 22.5 75.5t65.5 28.5q106 0 164.5 -80.5t58.5 -193.5q0 -63 -20 -121q20 -6 47 -6q113 0 201 143 l16 -20q-92 -158 -231 -158q-16 0 -50 4q-72 -133 -217 -133q-168 0 -307 201q-68 100 -109.5 275t-41.5 390zM68 1096q0 -410 94 -697q92 252 92 674q0 182 -22.5 301t-61.5 119q-51 0 -76.5 -109.5t-25.5 -287.5zM426 338q0 -49 40 -115.5t101 -105.5q2 10 2 30 q0 90 -34.5 165t-83.5 75q-25 0 -25 -49z" />
<glyph unicode="c" horiz-adv-x="821" d="M0 170q0 154 122 291t304 137q63 0 94 -31.5t31 -84t-37 -102.5t-84 -50q-25 0 -50.5 19.5t-25.5 32.5t10.5 22.5t24.5 17.5q33 17 33 70q0 61 -78 61t-129 -69.5t-51 -177t83 -194.5t249 -87q104 0 203.5 50t168.5 150l15 -24q-74 -133 -226.5 -207t-307 -74t-252 64.5 t-97.5 185.5z" />
<glyph unicode="d" horiz-adv-x="1038" d="M2 184q0 158 122 312.5t277 154.5h2q-96 268 -96 475t100.5 371t213.5 164q78 0 128 -95.5t50 -289.5q0 -406 -137 -793q79 -155 166 -283t115 -160t28 -42t-44 -47t-77 -37t-113 103.5t-166 261.5q-158 -295 -364 -295q-104 0 -154.5 55t-50.5 145zM205 335 q0 -97 38.5 -154.5t116.5 -57.5q96 0 185 207q-47 94 -78 166q-16 -14 -37 -15q-33 0 -33 41q0 12 17.5 23.5t17.5 29.5q0 39 -35 39q-84 0 -138 -91t-54 -188zM422 1298q0 -322 196 -733q72 287 72 525q0 473 -162 473q-106 -1 -106 -265z" />
<glyph unicode="e" horiz-adv-x="643" d="M-80 430q0 119 135 205t236.5 86t101.5 -49q0 -31 -32.5 -66t-59.5 -35q-41 0 -41 35l2 27q0 25 -53 25h-2q-55 0 -99.5 -33t-44.5 -88q0 -98 142 -99q23 0 46 7.5t48 7.5t25 -17q0 -2 -16.5 -9t-40 -21.5t-48.5 -36.5q-57 -53 -57 -145.5t55 -140.5t143.5 -48t180.5 51 t149 139l15 -24q-78 -135 -216.5 -214t-252 -79t-174 47t-60.5 122t37 138.5t64.5 91t41 38.5t13.5 16.5t-2 5.5q-66 -25 -127 -25q-109 0 -109 88z" />
<glyph unicode="f" horiz-adv-x="524" d="M-373 -311q0 23 35 42t105.5 19t146.5 -41q111 29 231 103q-27 104 -98.5 383.5t-103.5 422.5q-103 428 -103 630q0 201 83 316q83 117 237 117q159 0 159 -389q0 -201 -41.5 -447.5t-101.5 -430.5l125 -488q174 145 270 299l15 -24q-111 -168 -277 -312 q106 -440 107 -641q0 -14 -11.5 -16t-58.5 -34t-54 -39t-16.5 -7t-15.5 17q-141 383 -323 503q-101 -32 -166 -32h-4q-139 0 -140 49zM-291 -291.5q0 -17.5 57.5 -17.5t114.5 10q-55 25 -113.5 25t-58.5 -17.5zM-41 -322q156 -109 285 -374l6 10q-25 156 -94 461 q-96 -61 -197 -97zM-31 1411q0 -209 189 -936q53 244 53 530.5t-40 450.5t-121 164t-81 -209z" />
<glyph unicode="g" horiz-adv-x="915" d="M0 143q0 158 122 312.5t277 154.5q86 0 103 -57q31 41 69.5 70.5t67.5 29.5t29 -43q0 -12 -19.5 -81.5t-19.5 -92.5q0 -162 96 -499q166 182 238 288l14 -24q-57 -96 -242 -303q37 -109 56.5 -186t38 -145.5t26.5 -105.5q20 -111 21 -163q0 -170 -93.5 -275.5 t-201 -105.5t-176 88t-68.5 258q14 147 79.5 272t178.5 256q-53 193 -82 311q-78 -78 -162 -118.5t-147 -40.5q-104 0 -154.5 55t-50.5 145zM203 294q0 -97 39 -154.5t114 -57.5q1 -1 2 -1q75 0 146 66q-41 184 -43 304q-12 -10 -33 -11q-33 0 -33 41q0 12 17.5 23.5 t17.5 30.5q0 39 -35 38q-84 0 -138 -91t-54 -188zM483 -676q0 -141 52.5 -233t111.5 -92q39 0 64.5 47t25.5 148t-127 542q-127 -197 -127 -412z" />
<glyph unicode="h" d="M-154 1047q0 248 99.5 423t208.5 175q196 0 196 -381q0 -205 -51 -452t-121 -419l92 -303q4 0 53.5 146.5t51.5 166.5q10 39 49 52q23 6 80 27.5t59 21.5q14 0 15 -19q-19 -101 -19 -208q0 -106 39 -181q39 -76 111 -76q119 0 276 205l14 -24q-94 -139 -193 -212 t-192.5 -73t-155 102.5t-61.5 298.5v35q-100 -276 -104 -309q0 -43 -19.5 -51t-70.5 -31l-56 -27q-20 0 -27 26t-40 139.5t-51.5 178t-50 180t-51 192.5t-40.5 165q-41 172 -41 232zM-39 1321q0 -170 201 -875q61 190 61 456.5t-46 450t-122 183.5q-39 0 -66.5 -58.5 t-27.5 -156.5z" />
<glyph unicode="i" horiz-adv-x="638" d="M31 317q0 -195 74.5 -302t182 -107t214 74.5t198.5 218.5l-14 24q-160 -219 -295 -219q-86 0 -139 92t-53 250q0 82 14 166q0 18 -15.5 18t-138.5 -49q-18 -6 -18 -24q-10 -86 -10 -142zM31 815q0 49 30.5 84t74.5 35t76 -35t32 -84t-32 -84t-76 -35t-74.5 35t-30.5 84z " />
<glyph unicode="j" horiz-adv-x="468" d="M-92 379q0 16 22 24q113 43 169.5 89.5t64.5 46.5q23 0 22 -35q14 -246 95 -586q188 240 235 307l14 -24q-39 -63 -127 -180t-112 -150q25 -102 82 -326q111 -420 111 -573t-51 -240q-50 -86 -130 -86q-127 0 -248 177.5t-121 408.5q27 258 220 522q-124 432 -136 633 q-27 -31 -68.5 -31t-41.5 23zM-74 809q0 49 32 84t76 35t74.5 -35t30.5 -84t-30.5 -84t-74.5 -35t-76 35t-32 84zM80 -707q0 -121 46 -259t106.5 -227t104.5 -89t44 111q0 102 -37 245.5t-52.5 198.5t-61.5 214t-56 196q-94 -183 -94 -390z" />
<glyph unicode="k" horiz-adv-x="993" d="M-164 1133.5q0 93.5 7 154t30 134t58.5 129t99 93t147.5 37.5q180 0 180 -305q0 -338 -196 -934l80 -307q2 10 5 27.5t17.5 68t31.5 95.5t50 100t70 94q88 96 211 96q149 0 149 -114q0 -94 -82 -189.5t-168 -95.5l-41 8q-4 0 -4 -8q0 -92 58.5 -139t151.5 -47t192.5 52 t156.5 142l15 -24q-88 -137 -210 -208t-241 -71t-202 64.5t-103 183.5q0 20 41 52t82 52l39 21q4 0 28.5 -26.5t53 -26.5t54.5 44t26 95q0 108 -103 108h-2q-70 0 -123 -58t-78 -136q-47 -152 -47 -215l6 -57q0 -25 -71.5 -60t-90 -35t-22.5 25q-29 147 -97.5 412.5 t-113.5 470t-45 298zM-20 1323q0 -139 165 -817q92 356 93 715q0 407 -149 407h-1q-51 0 -79.5 -83t-28.5 -222z" />
<glyph unicode="l" horiz-adv-x="821" d="M-96 733q0 248 64.5 467t203.5 368.5t326 149.5q215 0 215 -262q0 -231 -157 -571t-374 -596q134 -254 355 -254q90 0 182 51t149 139l15 -24q-78 -135 -216.5 -214t-269.5 -79h-6q-158 0 -270 121q-217 229 -217 704zM49 896q0 -321 115 -568q143 188 269 512.5 t126 545.5q0 248 -176 248q-156 0 -245 -208.5t-89 -529.5z" />
<glyph unicode="m" horiz-adv-x="1406" d="M2 354l4 60q2 23 86 53.5t101 30.5q8 -1 8 -19l-4 -53q0 -201 65 -297q39 -57 97.5 -57t76.5 69q-49 123 -49 275q0 63 164 63q29 0 29 -30q0 -102 22 -201q41 -193 170 -193q39 0 72 45q-80 137 -80 336q0 39 54 79t97 40q49 0 50 -162q0 -16 -9 -78 q35 -125 88.5 -197.5t151.5 -72.5q127 0 258 180l14 -24q-160 -254 -352 -254q-160 0 -252 123q-80 -125 -190 -125q-143 0 -219 155q-25 -51 -76 -94t-123 -43q-109 0 -181.5 110.5t-72.5 280.5z" />
<glyph unicode="n" horiz-adv-x="1024" d="M-20 427q0 91 24.5 107.5t77.5 16.5t61 -14q2 -5 2 -15l-2 -49q0 -145 76 -455q121 438 209 486q59 51 111 51q16 0 16 -18.5t-23 -49.5q8 -27 23.5 -86t27 -100t34 -93t47.5 -85q61 -78 155 -78q127 0 258 180l15 -24q-160 -254 -353 -254q-96 0 -167.5 44t-108.5 118 q-68 135 -76 286q-76 -135 -137 -362q-16 -61 -31 -70q-31 -35 -92 -35t-61 15q-4 33 -29 135q-57 258 -57 349z" />
<glyph unicode="o" horiz-adv-x="786" d="M2 201q0 123 78 226t213 110q33 51 97.5 51t116.5 -75t52 -193.5t-35 -202.5q51 -37 107 -37q109 0 203 145l16 -20q-100 -164 -244 -164q-57 0 -108 25q-45 -70 -111.5 -109t-136.5 -39q-119 0 -183.5 80t-64.5 203zM154 250q0 -90 48 -152.5t126 -62.5t127 55 q-80 55 -131.5 155.5t-51.5 217.5q0 12 4 33q-122 -86 -122 -246zM385 380q0 -52 29 -120t78 -115q27 58 27 146q-1 93 -25 146q-24 52 -54 52q-23 0 -39 -28.5t-16 -80.5z" />
<glyph unicode="p" horiz-adv-x="886" d="M17 451q0 27 53 97q54 69 81 69h1q26 -1 26 -52l35 -254q14 66 59 144q88 160 249 160l1 -1q162 0 162 -161q0 -111 -73.5 -255.5t-164.5 -230.5q11 -2 31 -2q113 0 246 69.5t211 190.5l14 -24q-98 -152 -241.5 -231t-270.5 -79t-182 66q14 -100 45 -272q63 -377 63 -421 t-12 -49.5t-43 -25.5q-72 -45 -82 -45q-33 0 -37 57q-37 348 -104 785q-67 443 -67 465zM229 186q1 -55 13 -145l55 55q4 2 11 2t7 -16q0 -74 64 -74q66 4 109.5 89t43.5 174t-33.5 141.5t-101.5 52.5q-168 0 -168 -279z" />
<glyph unicode="q" horiz-adv-x="1032" d="M-2 112.5q0 73.5 37 150.5t101.5 144.5t167.5 110.5t224 43q84 0 84 -59q0 -45 -47 -77t-78 -32q-18 0 -18 31q0 86 -80 86q-90 0 -151.5 -80t-61.5 -167t44 -137t132 -50q45 0 97.5 53t58.5 137q-2 41 -2 49q0 18 31 31l100 41q6 4 14 4q18 0 19 -31q0 -141 8 -262 q82 -6 153 -53q158 43 248 180l15 -24q-76 -129 -199 -203q115 -104 181.5 -283.5t66.5 -335t-50.5 -244.5t-146.5 -89q-121 0 -217 118q-70 84 -127 283q-33 106 -53.5 259t-26.5 246t-7 129t-3 93q-35 -102 -127 -166.5t-194.5 -64.5t-147.5 48t-45 121.5zM688 -39 q25 -317 86 -563q35 -135 90.5 -214t124.5 -79q111 0 111 187.5t-87 386t-222 280.5q-14 -2 -40 -2t-63 4z" />
<glyph unicode="r" horiz-adv-x="772" d="M-10 528q0 29 49 54.5t82 25.5t33 -28q0 -154 143 -154q35 0 56.5 7t23.5 7q20 0 20 -29.5t-15 -41t-33.5 -47t-18.5 -82.5q0 -92 54 -144.5t135 -52.5t161 47t139 135l15 -24q-72 -125 -199 -201t-227 -76q-205 0 -205 187q0 35 24.5 94t48.5 100l25 41q0 8 -6 8 q-65 -16 -100 -16l-39 2q-20 0 -29 -18q-25 -61 -78 -140l-16 23q41 55 63 139q0 16 -14 23q-92 31 -92 161z" />
<glyph unicode="s" horiz-adv-x="620" d="M-45 106q0 10 47 67.5t62.5 57.5t17.5 -10q12 -66 68.5 -139.5t103.5 -73.5q74 0 76 41q0 63 -150 193q-55 49 -101 125.5t-46 158.5q0 16 6 23q90 82 119 82q23 0 22 -35q2 -76 64.5 -157t123 -154.5t60.5 -146t-72 -130.5q169 4 312 217l14 -24q-86 -137 -207 -210 t-229 -73q-219 0 -291 188z" />
<glyph unicode="t" horiz-adv-x="647" d="M-352.5 788.5q0.5 28.5 28.5 45.5l269 143q4 156 14 295q0 18 18 24q123 49 138.5 49.5t15.5 -18.5q-4 -102 -4 -186v-66l106 58q432 231 443.5 231t17.5 -6q45 -45 45 -51.5t-12 -15.5t-91 -49t-235.5 -118t-271.5 -137q33 -962 296 -962h1q113 0 270 200l15 -24 q-193 -287 -368 -287t-283.5 267.5t-114.5 711.5q-254 -133 -271 -133q-27 0 -26.5 28.5z" />
<glyph unicode="u" horiz-adv-x="1048" d="M2 317q0 145 64 187q47 28 112 28h4q19 0 19 -76q0 -72 -29 -157q29 -145 131 -205q40 -25 85 -25q1 1 2 1q46 0 87 39q-33 93 -33 186t9 160q0 18 18 24q123 49 138.5 49t15.5 -18q-14 -80 -15 -160q0 -154 53.5 -247t141.5 -93q135 0 291 215l14 -24 q-90 -141 -193.5 -214t-199.5 -73q-147 0 -223 154q-80 -119 -206 -119t-206 109.5t-80 258.5z" />
<glyph unicode="v" horiz-adv-x="587" d="M-75 481.5q1 12.5 45 38t73 25.5q41 -4 81 -85t87 -235.5t51 -165t8 -10.5q18 23 39 84q-69 121 -69 288q0 105 32.5 169.5t98.5 64.5q53 0 53 -115.5t-86 -385.5q35 -72 96 -72q113 0 201 143l16 -20q-92 -158 -231 -158q-49 0 -96 64l-37 -109q0 -18 -15.5 -22.5 t-62.5 -28t-57 -23.5q-16 0 -25 25q-98 344 -170 465q-18 29 -25.5 40t-6.5 23.5zM301 340q0 -92 25 -158q57 188 57 277.5t-29 89.5q-23 0 -38 -58.5t-15 -150.5z" />
<glyph unicode="w" horiz-adv-x="1230" d="M2 459q0 35 67.5 52t102.5 17q10 0 10 -20q-6 -41 -6 -99.5t6 -107.5t22.5 -102.5t51.5 -85t86 -31.5t80 45t29 93t-2 61q0 39 55 82t80.5 43t25.5 -31q0 -164 109 -287q63 -72 155 -72q59 0 93 56q-86 45 -146.5 150.5t-60.5 199.5q0 47 22.5 75.5t65.5 28.5 q84 0 139 -91t55 -187t-20 -156q27 -10 55 -10q113 0 201 143l16 -20q-92 -158 -231 -158q-33 0 -57 8q-76 -149 -254 -149q-131 0 -222 147q-35 55 -55 131q-6 -23 -28.5 -63.5t-45.5 -67.5q-65 -69 -149 -69h-2q-121 0 -183.5 112.5t-64.5 362.5zM846 393q0 -68 40 -152.5 t101 -127.5q14 41 14 113.5t-34.5 138t-96.5 65.5q-24 0 -24 -37z" />
<glyph unicode="x" horiz-adv-x="688" d="M-35 -175.5q0 25.5 166 241.5q-143 133 -143 383v10q0 18 18 24q123 49 138.5 49t15.5 -18q0 -184 88 -303q182 223 201.5 239.5t42 16.5t22.5 -12.5t-7 -19.5t-29.5 -32.5t-47.5 -54.5q-92 -106 -149 -176q88 -92 206 -92q143 0 248 145l15 -24q-68 -117 -165.5 -176.5 t-207 -59.5t-207.5 70q-104 -139 -154 -221q-10 -14 -30.5 -14.5t-20.5 25z" />
<glyph unicode="y" horiz-adv-x="915" d="M4 426q0 23 33 31q98 20 113 20q25 0 24 -24q0 -186 84 -293q53 -66 133 -66q43 0 90 39q-31 135 -31 228q0 95 44 139q88 51 98 51q20 0 20 -31q0 -223 82 -471l35 -108q154 166 234 284l14 -24q-49 -78 -90 -127t-87 -102.5t-59 -67.5q150 -428 164 -502 q29 -146 29 -236q0 -201 -67.5 -300t-172.5 -99q-133 0 -244.5 142.5t-111.5 353.5q14 145 78.5 268t173.5 254q-70 190 -96 301q-88 -113 -203 -113t-201 117t-86 336zM483 -676q0 -170 100.5 -319.5t186.5 -149.5q74 0 74 131q0 96 -72 295q-27 74 -80 218.5t-84 232.5 q-125 -191 -125 -408z" />
<glyph unicode="z" horiz-adv-x="835" d="M8 614q0 29 49 54.5t82 25.5t33 -28v-25q0 -55 64.5 -112.5t140.5 -57.5q35 0 56.5 7t23.5 7q20 0 20 -29.5t-14 -39.5q-57 -33 -106.5 -103.5t-57.5 -136.5q190 -139 305 -285q209 231 279 334l14 -24q-66 -102 -159 -210t-111 -130q190 -256 190 -563 q0 -170 -95 -275.5t-208 -105.5t-184.5 88t-71.5 258q25 250 246 514q-106 154 -258 239q-27 14 -27 67.5t40 133.5t76 123t46 51q0 8 -14.5 7t-80 -1t-132.5 23q0 -8 -21 -66q-43 -115 -84 -172l-16 23q33 39 57.5 116.5t26.5 114.5q-109 55 -109 178zM403 -676 q0 -141 56.5 -233t120.5 -92q43 0 70.5 47t27.5 137q0 307 -148 551q-127 -188 -127 -410z" />
<glyph unicode="{" horiz-adv-x="659" d="M-25 1573q0 125 99 215q41 39 147 121l33 -37q-66 -39 -99.5 -88t-33.5 -139.5t73.5 -309.5t74 -379.5t-112.5 -314.5q76 -39 144.5 -107.5t105.5 -146.5q68 -145 80 -380.5t49.5 -316.5t90 -112t128.5 -41l-17 -45q-106 4 -185 38t-123 83t-71 123q-45 125 -45 297 q0 211 -23.5 289.5t-45.5 136.5q-45 113 -148 168q55 74 55.5 185.5t-27.5 220t-61 173.5q-88 176 -88 367z" />
<glyph unicode="|" horiz-adv-x="602" d="M225 1710v133q96 39 119 43q-10 -338 -10 -668.5t23.5 -689t48.5 -495.5l24 -139q0 -18 -119 -60q-29 305 -43 485q-43 545 -43 1391z" />
<glyph unicode="}" horiz-adv-x="729" d="M-264 1864l16 45q106 -4 185 -38t123 -83t71 -123q45 -125 45 -297q0 -211 23.5 -290t46.5 -136q45 -113 147 -168q-55 -74 -55 -185.5t27.5 -220t60.5 -173.5q88 -176 88 -367q0 -125 -96 -215q-43 -39 -150 -121l-32 37q66 39 99.5 88t33.5 139t-74 309.5t-74 380 t113 314.5q-76 39 -144.5 107.5t-105.5 146.5q-68 145 -80 380.5t-50 316.5t-90 111.5t-128 41.5z" />
<glyph unicode="~" horiz-adv-x="751" d="M133 164q0 72 65 116t126 44l174 -21q59 0 141 90q16 0 16 -24q0 -49 -72.5 -120t-156.5 -71q-25 0 -88.5 17.5t-83.5 17.5q-70 0 -98 -72q-23 0 -23 23z" />
<glyph unicode="&#xa2;" horiz-adv-x="821" d="M53 618.5q0 116.5 72 229.5t188 166l-86 532q0 14 27 15q45 -1 53 -60l74 -463q45 12 103.5 12.5t89 -31.5t30.5 -84t-37 -102.5t-82 -50.5t-69 37l53 -336q37 -6 80 -6q104 0 203.5 50.5t169.5 150.5l14 -25q-63 -115 -186 -185.5t-265 -90.5l66 -412q0 -16 -14 -16 q-18 0 -39 25.5t-27 72.5l-53 326h-21q-150 0 -247 64.5t-97 181zM217 770q0 -86 45 -159.5t133 -108.5l-78 481q-100 -61 -100 -213zM385 1004l25 -154q4 4 22.5 15.5t30.5 29.5t12 36.5t-2 29t-24.5 27t-63.5 16.5z" />
<glyph unicode="&#xa3;" horiz-adv-x="1343" d="M0 773q0 28 37 63.5t63 35.5q70 -8 97 -8q184 0 372 117q-25 92 -24 170q0 244 151.5 402.5t304.5 158.5q123 0 123 -98q0 -92 -101 -237.5t-261 -286.5q35 -119 80 -232q240 47 467 88q-2 -41 -12.5 -74.5t-20.5 -37.5q-213 -37 -395 -74q25 -66 39 -96q49 10 372 69 q-2 -41 -12 -74.5t-20 -37.5l-302 -56q117 -293 117 -469v-2q29 -4 86 -4q225 0 400 129q16 0 16 -14q-193 -217 -520 -228q-31 -102 -104.5 -167.5t-176 -65.5t-213 62.5t-188.5 145.5t-129 159.5t-51 109.5q0 18 60 70.5t101 52.5q25 -10 123.5 -54t143.5 -63 q162 -68 262 -96q-39 125 -148 387q-137 -31 -178 -45t-58.5 -20.5t-24.5 -9.5t-9 -3l29 119q31 16 200 57l-37 93q-92 -25 -133 -40.5t-43 -15.5l29 119q20 12 111 35q-27 70 -45 139q-295 -201 -531 -201q-47 0 -47 28zM348 137q49 -131 160 -237q45 -45 116.5 -80 t151.5 -35q139 0 139 170q0 16 -2 27q-176 12 -333.5 64t-231.5 91zM721 1361q0 -114 31 -231q100 102 160.5 214t60.5 188q0 96 -92 96q-72 0 -116 -76.5t-44 -190.5z" />
<glyph unicode="&#xa5;" horiz-adv-x="1325" d="M-125 1610q0 25 45 41q63 20 111.5 20t62.5 -2q109 -201 144 -575q12 -133 34.5 -254t82 -189.5t169 -68.5t198.5 89t99 134q-96 330 -96 676q0 106 39 159.5t97.5 53.5t82 -115t23.5 -211q0 -156 -13 -221l-6 -27q41 -412 86 -708q178 35 338 63q-2 -41 -12 -74.5 t-21 -38.5q-248 -45 -288 -53l16 -100l289 53q-2 -41 -12.5 -74.5t-20.5 -37.5q-227 -41 -236 -44q107 -518 252 -518l47 11q8 0 9 -9q0 -27 -66.5 -64.5t-136.5 -37.5q-152 0 -260 590q-276 -57 -375 -98q-25 -10 -27 -11l29 119q43 27 356 90l-16 101q-217 -47 -274 -68 q-74 -29 -78 -29l28 119q39 25 310 82q-10 74 -21 168q-20 180 -26 201q0 -4 -20.5 -32t-61.5 -70t-92.5 -82t-125 -68.5t-147.5 -28.5q-133 0 -210 106.5t-102.5 263t-41.5 316.5q-37 397 -152 438q-10 4 -10 15z" />
<glyph unicode="&#xa8;" horiz-adv-x="638" d="M-156 815q0 49 31 84t75 35t75.5 -35t31.5 -84t-31.5 -84t-75.5 -35t-75 35t-31 84zM180 815q0 49 31 84t75 35t75.5 -35t31.5 -84t-31.5 -84t-75.5 -35t-75 35t-31 84z" />
<glyph unicode="&#xa9;" horiz-adv-x="1374" d="M37 516q0 186 103.5 329.5t258 213t326.5 69.5q242 0 410 -146t168 -425v-10q0 -195 -99.5 -341.5t-248 -216t-318.5 -69.5q-248 0 -424 154.5t-176 441.5zM127 553q0 -176 82 -303q152 -240 465 -240q219 0 382 131t163 374t-168 387.5t-389.5 144.5t-378 -130.5 t-156.5 -363.5zM289 453q0 154 121.5 291t304.5 137q63 0 94 -32t31 -84t-37 -102.5t-84 -50.5q-25 0 -50.5 19.5t-25.5 34t16 24.5q52 33 52 84q0 61 -78 61.5t-129 -69.5t-51 -177.5t82.5 -194.5t248.5 -87q104 0 203.5 50.5t169.5 150.5l14 -25q-74 -133 -226 -206.5 t-307 -73.5t-252 64.5t-97 185.5z" />
<glyph unicode="&#xab;" horiz-adv-x="1456" d="M-33 281q164 8 383 113.5t352 209.5q8 8 21.5 8t28 -5t26.5 -11q22 -11 47 -31q-121 -129 -575 -286q166 -57 365.5 -162t267.5 -191q-55 -55 -109 -55l-53 35q-457 315 -631 315q-29 0 -68.5 26.5t-54.5 33.5zM455 281q164 8 383 113.5t352 209.5q8 8 21.5 8t27.5 -5 t27 -11q22 -11 47 -31q-121 -129 -576 -286q166 -57 366 -162t267 -191q-55 -55 -108 -55l-54 35q-457 315 -630 315q-29 0 -69 26.5t-54 33.5z" />
<glyph unicode="&#xad;" horiz-adv-x="872" d="M166 184l12 92q213 0 364.5 13.5t196.5 25.5l45 15l-14 -109q-137 -37 -604 -37z" />
<glyph unicode="&#xae;" horiz-adv-x="1374" d="M37 516q0 186 103.5 329.5t258 213t326.5 69.5q242 0 410 -146t168 -425v-10q0 -195 -99.5 -341.5t-248 -216t-318.5 -69.5q-248 0 -424 154.5t-176 441.5zM127 553q0 -94 23 -178q96 6 186 47t139 117q41 55 64 139q0 14 -15 22q-92 31 -92 162q0 29 49 54.5t82 25.5 t33 -29v-24q0 -129 143 -129q35 0 56.5 7t23.5 7q20 0 20.5 -29.5t-15 -41t-34 -47t-18.5 -83.5q0 -92 54.5 -144t138.5 -52q139 0 254 127q-2 256 -170 399.5t-388.5 143.5t-377 -130.5t-156.5 -363.5zM190 276q70 -131 200 -198.5t284 -67.5q207 0 365.5 117t177.5 324 q-78 -88 -183.5 -140.5t-194.5 -52.5t-141.5 47t-52.5 139q0 35 24.5 94.5t49.5 100.5l24 41q0 8 -6 8q-65 -16 -100 -16l-39 2q-20 0 -29 -19q-25 -61 -77 -139q-106 -180 -302 -240z" />
<glyph unicode="&#xb4;" d="M289 723q78 8 134 48t56 112q0 18 -2 28q0 29 33 29t85 -25.5t52 -54.5q0 -51 -93 -109.5t-228 -58.5q-37 0 -37 31z" />
<glyph unicode="&#xb8;" horiz-adv-x="747" d="M244 -354l16 14q43 -12 82 -12t60.5 25.5t21.5 51t-35 78t-35 80t21 47.5l53 21q-12 -23 -12 -39q0 -49 69.5 -94t69.5 -83t-62.5 -78t-131 -40t-117.5 29z" />
<glyph unicode="&#xbb;" horiz-adv-x="1417" d="M-2 578q55 55 108 55q145 -135 316.5 -222t269.5 -108l99 -20q29 0 68.5 -27t53.5 -33q-164 -8 -383 -113.5t-352 -209.5q-8 -8 -21.5 -8.5t-27.5 5t-27 11.5q-22 11 -47 31q121 129 576 286q-166 57 -365.5 162t-267.5 191zM492 578q55 55 108 55q145 -135 316 -222 t270 -108l98 -20q29 0 69 -27t54 -33q-164 -8 -383 -113.5t-352 -209.5q-8 -8 -21.5 -8.5t-28 5t-28.5 11.5q-20 11 -45 31q121 129 575 286q-166 57 -365.5 162t-266.5 191z" />
<glyph unicode="&#xc2;" horiz-adv-x="1703" d="M6 395q0 152 57.5 321t165 327.5t248.5 288.5t326.5 208t378.5 78q256 0 256 -178q0 -160 -180.5 -337t-368.5 -177q-92 0 -92 63q0 39 57 76t100 37q13 0 13 -12l-2 -15q2 -63 41 -63q104 0 184 99t80 200.5t-59.5 159t-184.5 57.5q-182 0 -338 -91t-254 -234.5 t-152.5 -312.5t-54.5 -335q0 -231 103.5 -380.5t302.5 -149.5q80 0 158.5 30.5t134.5 75.5q115 88 168 162l20 31q-23 96 -22.5 206.5t27 207t55.5 124.5q57 61 120 62q55 0 55.5 -82t-18 -145.5t-63.5 -149.5v-2q18 -121 57 -229.5t74 -155.5q80 -117 176 -117q29 0 48 7 t33.5 7t14.5 -10q0 -27 -69.5 -71t-150.5 -44t-167 72t-137 205l-25 76q-37 -51 -106.5 -121t-137 -118t-172 -88t-210.5 -40q-246 0 -368 131t-122 346zM582 1624q86 68 110 102l33 52q10 12 22 36l15 29q0 29 52 54.5t85 25.5t33 -29q-2 -10 -2 -28q0 -72 56 -112t134 -48 q0 -27 -37 -31q-102 0 -180 33t-115 80q-4 -4 -26 -33q-55 -66 -131 -129q-16 -14 -32.5 -14t-16.5 12z" />
<glyph unicode="&#xc7;" horiz-adv-x="1253" d="M-20 543q0 190 68.5 388.5t183 359.5t279.5 264.5t341 103.5q84 0 133 -44t49 -143.5t-93 -234.5t-232.5 -230.5t-257.5 -95.5q-59 0 -72 31q-10 27 -10 56.5t55 72.5t83 43t28 -20l-7 -41q0 -41 54 -41q102 0 191 118.5t89 245.5q0 197 -137 197q-154 0 -277.5 -132 t-187 -331t-63.5 -407.5t55 -371.5t185 -271.5t300 -108.5q332 0 563 274l15 -24q-82 -131 -220.5 -213t-301.5 -107q6 -43 72.5 -86t66.5 -81t-62.5 -77.5t-131 -39.5t-117.5 28l16 15q43 -12 82 -12.5t60.5 25t21.5 51.5t-35 77t-35 82v10q-20 -2 -61 -2 q-348 0 -519 189.5t-171 482.5z" />
<glyph unicode="&#xce;" horiz-adv-x="923" d="M-197 1020q0 217 93 393q47 90 132 145.5t195 55.5q121 0 178 -154q61 -160 77 -324.5t22 -259t12 -230.5t12 -210q43 -6 128 -6t138.5 10.5t85 29.5t37.5 19q15 0 15 -18t-53.5 -64.5t-144.5 -91.5t-187 -51q20 -141 55 -196.5t35 -63.5t-13.5 -17.5t-52.5 -27.5 q-94 -45 -104 -45q-25 0 -57.5 65.5t-53.5 307.5q-225 66 -387 268.5t-162 464.5zM-100 1653q86 68 110 102l35 51q8 12 21 37l14 29q0 29 52 54.5t85 25.5t33 -29q-2 -10 -2 -29q0 -72 56 -111.5t134 -47.5q0 -27 -37 -31q-102 0 -180 32.5t-115 80.5q-4 -4 -28 -33 q-53 -66 -129 -129q-16 -14 -32.5 -14.5t-16.5 12.5zM-68 1206q0 -223 109 -422.5t299 -291.5q-27 524 -66 710q-63 299 -200 301q-141 0 -142 -297z" />
<glyph unicode="&#xd6;" horiz-adv-x="1452" d="M-16 589q0 288 160.5 559t461.5 429h4q8 0 8 -18.5t-14 -26.5q-203 -100 -322.5 -329.5t-119.5 -483.5q0 -274 145 -477q72 -98 195 -157.5t287.5 -59.5t298 112.5t197 281.5t63.5 357q0 268 -134.5 456.5t-386.5 188.5q-291 0 -389 -358q-4 -18 -20 -19q-12 0 -12 23 q0 88 75.5 199.5t212.5 196.5t287 85q262 0 395 -164.5t133 -418.5q0 -178 -64.5 -362.5t-177 -339t-285.5 -253t-370 -98.5q-297 0 -462.5 194.5t-165.5 482.5zM450 1765q0 49 31 84t75 35t75.5 -35t31.5 -84t-31.5 -84t-75.5 -35t-75 35t-31 84zM786 1765q0 49 31 84 t75 35t75.5 -35t31.5 -84t-31.5 -84t-75.5 -35t-75 35t-31 84z" />
<glyph unicode="&#xdb;" horiz-adv-x="1597" d="M-145 1491q0 12 27.5 29.5t90 40t93.5 22.5q51 0 84.5 -112.5t49 -280.5t48.5 -365.5t77 -365.5t141 -280.5t234 -112.5q96 0 179.5 88t113.5 231q-8 -4 -39.5 107.5t-60.5 274.5t-29 273l4 107q0 12 41 31.5t60 19.5q53 0 89 -97t36 -290l-4 -121q0 -63 77.5 -222 t184 -298t172.5 -139q2 0 26 4q12 0 13 -17q0 -25 -72 -65.5t-109 -40.5q-61 0 -170.5 111.5t-187.5 298.5q-180 -381 -432 -381q-127 0 -223.5 66.5t-151.5 174t-94 245.5t-55.5 282.5t-34.5 281.5l-33 246q-33 242 -125 242q-20 0 -20 12zM291 1452q86 68 110 102l33 52 q10 12 23 36l14 29q0 29 52 54.5t85 25.5t33 -29q-2 -10 -2 -28q0 -72 56 -112t134 -48q0 -27 -36 -31q-102 0 -180 33t-115 80q-4 -4 -27 -33q-55 -66 -131 -129q-16 -14 -32.5 -14t-16.5 12z" />
<glyph unicode="&#xdc;" horiz-adv-x="1597" d="M-145 1491q0 12 27.5 29.5t90 40t93.5 22.5q51 0 84.5 -112.5t49 -280.5t48.5 -365.5t77 -365.5t141 -280.5t234 -112.5q96 0 179.5 88t113.5 231q-8 -4 -39.5 107.5t-60.5 274.5t-29 273l4 107q0 12 41 31.5t60 19.5q53 0 89 -97t36 -290l-4 -121q0 -63 77.5 -222 t184 -298t172.5 -139q2 0 26 4q12 0 13 -17q0 -25 -72 -65.5t-109 -40.5q-61 0 -170.5 111.5t-187.5 298.5q-180 -381 -432 -381q-127 0 -223.5 66.5t-151.5 174t-94 245.5t-55.5 282.5t-34.5 281.5l-33 246q-33 242 -125 242q-20 0 -20 12zM313 1630q0 49 31 84t75 35 t75.5 -35t31.5 -84t-31.5 -84t-75.5 -35t-75 35t-31 84zM649 1630q0 49 31 84t75 35t75.5 -35t31.5 -84t-31.5 -84t-75.5 -35t-75 35t-31 84z" />
<glyph unicode="&#xe2;" d="M0 111q0 117 99.5 244.5t195.5 127.5q8 0 8 -6t-8 -14q-43 -23 -72.5 -93.5t-29.5 -144.5q0 -150 114 -149q33 0 62.5 17.5t36.5 49.5q-27 72 -27 150t6 131q17 113 31 113q6 12 111.5 12t105.5 -31q0 -6 -12 -24q-72 -98 -72 -205t50 -175.5t128 -68.5q127 0 258 180 l14 -24q-160 -254 -352 -254q-145 0 -223 149q-33 -49 -106.5 -92t-139.5 -43q-178 0 -178 150zM105 641q86 68 110 102l33 52q10 12 22 36l15 29q0 29 52 54.5t85 25.5t33 -29q-2 -10 -2 -28q0 -72 56 -112t134 -48q0 -27 -37 -31q-102 0 -180 33t-115 80q-4 -4 -26 -33 q-55 -66 -131 -129q-16 -14 -32.5 -14t-16.5 12z" />
<glyph unicode="&#xe7;" horiz-adv-x="821" d="M0 170q0 154 122 291t304 137q63 0 94 -31.5t31 -84t-37 -102.5t-84 -50q-25 0 -50.5 19.5t-25.5 32.5t10.5 22.5t24.5 17.5q33 17 33 70q0 61 -78 61t-129 -69.5t-51 -177t83 -194.5t249 -87q104 0 203.5 50t168.5 150l15 -24q-57 -104 -164 -172t-236 -95q-2 -6 -2 -20 q0 -49 70 -94t70 -83t-62.5 -78t-131.5 -40t-118 29l17 14q43 -12 81.5 -12t60 25.5t21.5 50t-34.5 78t-34.5 80t14 42.5q-45 -6 -90 -6q-150 0 -247 64.5t-97 185.5z" />
<glyph unicode="&#xee;" horiz-adv-x="638" d="M-106 641q86 68 110 102l33 52q10 12 22 36l15 29q0 29 52 54.5t85 25.5t33 -29q-2 -10 -2 -28q0 -72 56 -112t134 -48q0 -27 -37 -31q-102 0 -180 33t-115 80q-4 -4 -26 -33q-55 -66 -131 -129q-16 -14 -32.5 -14t-16.5 12zM31 317q0 56 10 142q0 18 18 24 q123 49 138.5 49t15.5 -18q-14 -84 -14 -166q0 -158 53 -250t139 -92q135 0 295 219l14 -24q-92 -143 -198.5 -218t-214 -75t-182 107.5t-74.5 301.5z" />
<glyph unicode="&#xf6;" horiz-adv-x="786" d="M-9 792q0 49 31 84t75 35t75.5 -35t31.5 -84t-31.5 -84t-75.5 -35t-75 35t-31 84zM2 201q0 123 78 226t213 110q33 51 97.5 51t116.5 -75t52 -193.5t-35 -202.5q51 -37 107 -37q109 0 203 145l16 -20q-100 -164 -244 -164q-57 0 -108 25q-45 -70 -111.5 -109t-136.5 -39 q-119 0 -183.5 80t-64.5 203zM154 250q0 -90 48 -152.5t126 -62.5t127 55q-80 55 -131.5 155.5t-51.5 217.5q0 12 4 33q-122 -86 -122 -246zM327 792q0 49 31 84t75 35t75.5 -35t31.5 -84t-31.5 -84t-75.5 -35t-75 35t-31 84zM385 380q0 -52 29 -120t78 -115 q27 59 26.5 149.5t-24 142.5t-54.5 52q-23 0 -39 -28.5t-16 -80.5z" />
<glyph unicode="&#xfb;" horiz-adv-x="1048" d="M2 317q0 145 64 187q49 29 116 28q18 0 18.5 -73.5t-28.5 -159.5q29 -145 131 -205q41 -25 87 -24.5t87 39.5q-33 94 -32.5 188.5t8.5 157.5q0 18 18 24q123 49 138.5 49t15.5 -18q-14 -80 -15 -160q0 -154 53.5 -247t141.5 -93q135 0 291 215l14 -24 q-90 -141 -193.5 -214t-199.5 -73q-147 0 -223 154q-80 -119 -206 -119t-206 109.5t-80 258.5zM72 641q86 68 110 102l35 52q8 12 21 36l14 29q0 29 52 54.5t85 25.5t33 -29q-2 -10 -2 -28q0 -72 56 -112t134 -48q0 -27 -37 -31q-102 0 -180 33t-114 80q-4 -4 -29 -33 q-53 -66 -129 -129q-16 -14 -32.5 -14t-16.5 12z" />
<glyph unicode="&#xfc;" horiz-adv-x="1048" d="M2 317q0 145 64 187q49 29 116 28q18 0 18.5 -73.5t-28.5 -159.5q29 -145 131 -205q41 -25 87 -24.5t87 39.5q-33 94 -32.5 188.5t8.5 157.5q0 18 18 24q123 49 138.5 49t15.5 -18q-14 -80 -15 -160q0 -154 53.5 -247t141.5 -93q135 0 291 215l14 -24 q-90 -141 -193.5 -214t-199.5 -73q-147 0 -223 154q-80 -119 -206 -119t-206 109.5t-80 258.5zM63 815q0 49 31 84t75 35t75.5 -35t31.5 -84t-31.5 -84t-75.5 -35t-75 35t-31 84zM399 815q0 49 31 84t75 35t75.5 -35t31.5 -84t-31.5 -84t-75.5 -35t-75 35t-31 84z" />
<glyph unicode="&#x131;" horiz-adv-x="638" d="M31 317q0 56 10 142q0 18 18 24q123 49 138.5 49t15.5 -18q-14 -84 -14 -166q0 -158 53 -250t139 -92q135 0 295 219l14 -24q-92 -143 -198.5 -218t-214 -75t-182 107.5t-74.5 301.5z" />
<glyph unicode="&#x2c6;" d="M111 641q86 68 110 102l33 52q10 12 22 36l15 29q0 29 52 54.5t85 25.5t33 -29q-2 -10 -2 -28q0 -72 56 -112t134 -48q0 -27 -37 -31q-102 0 -180 33t-115 80q-4 -4 -26 -33q-55 -66 -131 -129q-16 -14 -32.5 -14t-16.5 12z" />
<glyph unicode="&#x2da;" horiz-adv-x="587" d="M176 749.5q0 55.5 42 110.5t102.5 55t90 -30.5t29.5 -86t-45 -109.5t-105.5 -54t-87 29.5t-26.5 85zM233 795q0 -35 25 -62.5t59 -27.5q63 0 64 57q0 33 -27.5 57.5t-77.5 24.5q-43 0 -43 -49z" />
<glyph unicode="&#x2dc;" horiz-adv-x="690" d="M88 657q0 72 65 116t126 44l174 -20q59 0 141 90q16 0 16 -25q0 -49 -72.5 -119.5t-156.5 -70.5q-25 0 -88.5 17.5t-83.5 17.5q-70 0 -98 -72q-23 0 -23 22z" />
<glyph unicode="&#x2000;" horiz-adv-x="976" />
<glyph unicode="&#x2001;" horiz-adv-x="1952" />
<glyph unicode="&#x2002;" horiz-adv-x="976" />
<glyph unicode="&#x2003;" horiz-adv-x="1952" />
<glyph unicode="&#x2004;" horiz-adv-x="650" />
<glyph unicode="&#x2005;" horiz-adv-x="488" />
<glyph unicode="&#x2006;" horiz-adv-x="325" />
<glyph unicode="&#x2007;" horiz-adv-x="325" />
<glyph unicode="&#x2008;" horiz-adv-x="244" />
<glyph unicode="&#x2009;" horiz-adv-x="390" />
<glyph unicode="&#x200a;" horiz-adv-x="108" />
<glyph unicode="&#x2010;" horiz-adv-x="872" d="M166 184l12 92q213 0 364.5 13.5t196.5 25.5l45 15l-14 -109q-137 -37 -604 -37z" />
<glyph unicode="&#x2011;" horiz-adv-x="872" d="M166 184l12 92q213 0 364.5 13.5t196.5 25.5l45 15l-14 -109q-137 -37 -604 -37z" />
<glyph unicode="&#x2012;" horiz-adv-x="872" d="M166 184l12 92q213 0 364.5 13.5t196.5 25.5l45 15l-14 -109q-137 -37 -604 -37z" />
<glyph unicode="&#x2013;" horiz-adv-x="808" d="M131 184l12 92q213 0 364.5 13.5t197.5 25.5l45 15l-15 -109q-137 -37 -604 -37z" />
<glyph unicode="&#x2014;" horiz-adv-x="1527" d="M145 184l23 92q426 0 729 13.5t393 25.5l88 15l-26 -109q-279 -37 -1207 -37z" />
<glyph unicode="&#x2018;" horiz-adv-x="452" d="M129 1328q0 83 46 166t91 122l45 39q33 0 33 -13.5t-18 -31.5q-76 -111 -76 -157t52 -80t52 -67.5t-50 -75.5t-94 -42t-62.5 28.5t-18.5 111.5z" />
<glyph unicode="&#x2019;" horiz-adv-x="452" d="M129 1537q0 34 50 76t94 42t62.5 -29t18.5 -111.5t-46 -165.5t-91 -122l-45 -39q-33 0 -33 13t19 32q76 111 75.5 157t-52.5 79.5t-52 67.5z" />
<glyph unicode="&#x201a;" horiz-adv-x="452" d="M129 79q0 34 50 76t94 42t62.5 -29t18.5 -112t-46 -166t-91 -121l-45 -39q-33 0 -33 13t19 32q76 111 75.5 156.5t-52.5 79.5t-52 68z" />
<glyph unicode="&#x201c;" horiz-adv-x="729" d="M129 1328q0 83 46 166t91 122l45 39q33 0 33 -13.5t-18 -31.5q-76 -111 -76 -157t52 -80t52 -67.5t-50 -75.5t-94 -42t-62.5 28.5t-18.5 111.5zM406 1311q0 123 63 213q53 76 100 114l19 17q33 0 33 -13.5t-19 -31.5q-76 -111 -76 -157t52.5 -80t52.5 -67.5t-50.5 -75.5 t-103.5 -42q-72 0 -71 123z" />
<glyph unicode="&#x201d;" horiz-adv-x="729" d="M129 1537q0 34 50 76t94 42t62.5 -29t18.5 -111.5t-46 -165.5t-91 -122l-45 -39q-33 0 -33 13t19 32q76 111 75.5 157t-52.5 79.5t-52 67.5zM406 1537q0 34 50 76t103 42q72 0 72 -123t-64 -213q-53 -76 -100 -115l-18 -16q-33 0 -33 13t18 32q76 111 76 157t-52 79.5 t-52 67.5z" />
<glyph unicode="&#x201e;" horiz-adv-x="729" d="M129 85q0 34 50 76t94 42t62.5 -29t18.5 -111.5t-46 -165.5t-91 -122l-45 -39q-33 0 -33 13t19 32q76 111 75.5 157t-52.5 79.5t-52 67.5zM406 85q0 34 50 76t103 42q72 0 72 -125q0 -121 -64 -213q-53 -74 -100 -115l-18 -14q-33 0 -33 13t18 32q76 111 76 157t-52 79.5 t-52 67.5z" />
<glyph unicode="&#x2026;" horiz-adv-x="1445" d="M123 72q0 49 30.5 83.5t74.5 34.5t76 -34.5t32 -83.5t-32 -84t-76 -35t-74.5 35t-30.5 84zM571 72q0 49 31 83.5t75 34.5t75.5 -34.5t31.5 -83.5t-31.5 -84t-75.5 -35t-75 35t-31 84zM1001 72q0 49 31 83.5t75 34.5t75.5 -34.5t31.5 -83.5t-31.5 -84t-75.5 -35t-75 35 t-31 84z" />
<glyph unicode="&#x202f;" horiz-adv-x="390" />
<glyph unicode="&#x2039;" horiz-adv-x="968" d="M-33 281q164 8 383 113.5t352 209.5q8 8 21.5 8t28 -5t26.5 -11q22 -11 47 -31q-121 -129 -575 -286q166 -57 365.5 -162t267.5 -191q-55 -55 -109 -55l-53 35q-457 315 -631 315q-29 0 -68.5 26.5t-54.5 33.5z" />
<glyph unicode="&#x203a;" horiz-adv-x="929" d="M-2 578q55 55 108 55q145 -135 316.5 -222t269.5 -108l99 -20q29 0 68.5 -27t53.5 -33q-164 -8 -383 -113.5t-352 -209.5q-8 -8 -21.5 -8.5t-27.5 5t-27 11.5q-22 11 -47 31q121 129 576 286q-166 57 -365.5 162t-267.5 191z" />
<glyph unicode="&#x205f;" horiz-adv-x="488" />
<glyph unicode="&#x20ac;" horiz-adv-x="1413" d="M-12 346l28 119q27 14 148 45q0 33 8 102q-119 -33 -141.5 -43t-26.5 -10l29 119q29 14 162 47q45 172 146 337t241.5 297t324 213t350.5 81q309 0 310 -191q0 -111 -93.5 -246t-232.5 -230t-258 -95q-59 0 -72 31q-10 27 -10 56.5t55.5 72.5t83 42.5t27.5 -20.5l-6 -41 q0 -41 53 -41q102 0 191.5 119t89.5 229q0 233 -265 234q-147 0 -280 -68.5t-227 -183.5q-195 -238 -242 -553q199 39 448 84q-2 -41 -12 -75t-20 -38q-250 -43 -426 -80v-43q0 -41 2 -61q190 39 440 84q-2 -41 -12 -75t-21 -38q-295 -51 -395 -73q39 -213 180.5 -342 t390 -129t437.5 243l14 -24q-92 -150 -236.5 -222.5t-310.5 -72.5q-322 0 -492.5 136t-199.5 361q-82 -20 -129 -38.5t-51 -18.5z" />
<glyph unicode="&#x2122;" horiz-adv-x="1282" d="M-131 1108q0 14 25 76q23 29 223 96.5t375 91.5q12 0 12 -6q-2 -4 -4 -6l-35 -37q-2 -2 -47 -12.5t-83 -43t-38 -83.5t38 -161t48 -163q51 33 84 39q10 0 10 -10q0 -2 -4 -6q-35 -12 -86 -47q6 -31 6 -60q0 -78 -54 -145.5t-101 -67.5q-37 0 -37 55q0 117 102 201 q-8 39 -49 148.5t-41 165t14.5 76t77.5 69.5q-18 0 -185 -68.5t-204 -92t-42 -23.5t-5 14zM252 649q0 -31 22 -31q16 0 30.5 23t14.5 63.5t-10 86.5q-57 -56 -57 -142zM399.5 1268q-0.5 8 38.5 15t57.5 7t30.5 -28q14 -23 29.5 -68t13.5 -45q27 53 66 89t78 36 q63 0 89.5 -88t39.5 -266l16 69q49 217 55.5 227.5t46 24.5t50.5 14q4 0 4 -10l-2 -16v-27q0 -104 32 -248q20 -84 70.5 -137t124.5 -53q27 0 51 12q4 -4 4 -8q0 -18 -50 -40.5t-79 -22.5q-109 0 -170 138t-61 326h-4l-94 -381q-4 -47 -9 -53q-41 -20 -47 -20t-7 40t-10 132 t-40 195.5t-72 103.5q-45 0 -71 -78q41 -188 41 -356q0 -20 -19.5 -33.5t-33 -13.5t-25.5 28q-31 68 -31 197q0 43 4 67q-43 258 -106 263q-10 0 -10.5 8z" />
<glyph unicode="&#x25fc;" horiz-adv-x="532" d="M0 0v532h532v-532h-532z" />
</font>
</defs>
</svg>
